Торрент файл
скачать торрент магнет ссылка Добавлен: 08 май 2012, 11:27
Размер: 1.37 ГБ
Сидеров: 125
Личеров: 12
Статус: (Dracon)
Автор

СообщениеДобавлено: 08 май 2012, 11:27 

Не в сети
Зам. Админа
Аватара пользователя
Дата регистрации:
02 дек 2010, 12:39
Спасибо: 12460 / 214
Сообщения: 27968


Год выпуска: 2011
Страна: Мексика
Режиссер: Гильермо Риос
Жанр: триллер, драма, мелодрама
Продолжительность: 01:36:32
Перевод: Любительский (двухголосый) [SnowRecords], cубтитры:отсутствуют

В ролях: Клаудия Зепеда, Карен Де Ла Хойа, Скарлет Дергал, Алёнка Риос, Степх Боумелкроуд, Андреа Педреро, Кариам Кастро, Дэнис Монтес, Ева Луна Маренко, Наталия Зурита
Описание: Стерва, модница, заучка, тихоня, слепая — что объединяет всех этих девушек? Каждая из них подозревается в совершении зверского преступления, произошедшего в школе. И пока десять учениц ждут приезда полиции в одном из классов, мы погружаемся в воспоминания и эмоции каждой из них, полные разврата, насилия и душевных переживаний, вместе с героинями пытаясь разобраться, кто же виноват.
___________

Формат: DVDRip-AVC, MKV, H.264, AC3
Видео: 720*360@853*360 (2.35:1), 23,976 fps, AVC (х264), , ~ 1580 Kbps, 0.254 bit/pixel
Аудио: 48 kHz, AC3 Dolby Digital, 3/2 (L,C,R,l,r) + LFE ch, ~448 kbps avg
General
Unique ID: 200867913137658995773089317563134532520 (0x971DC0BC9A211F9288B2D98EA9AA5BA8)
Complete name: E:\Suki.2011.DVDRip-AVC.mkv
Format: Matroska
File size: 1.37 GiB
Duration: 1h 36mn
Overall bit rate: 2 029 Kbps
Encoded date: UTC 2012-05-05 05:01:16
Writing application: mkvmerge v5.5.0 ('Healer') built on Apr6 2012 21:43:24
Writing library: libebml v1.2.3 + libmatroska v1.3.0
Video
ID: 1
Format: AVC
Format/Info: Advanced Video Codec
Format profile:
Format settings, CABAC: Yes
Format settings, ReFrames: 9 frames
Format settings, GOP: M=1, N=3
Codec ID: V_MPEG4/ISO/AVC
Duration: 1h 36mn
Bit rate: 1 580 Kbps
Width: 720 pixels
Height: 360 pixels
Display aspect ratio: 2.35:1
Frame rate: 23.976 fps
Color space: YUV
Chroma subsampling: 4:2:0
Bit depth: 8 bits
Scan type: Progressive
Bits/(Pixel*Frame): 0.254
Stream size: 1.04 GiB (76%)
Writing library: x264 core 119 r2106 07efeb4
Encoding settings: cabac=1 / ref=9 / deblock=1:-1:-1 / analyse=0x3:0x133 / me=umh / subme=9 / psy=1 / psy_rd=1.00:0.10 / mixed_ref=1 / me_range=24 / chroma_me=1 / trellis=2 / 8x8dct=1 / cqm=0 / deadzone=21,11 / fast_pskip=0 / chroma_qp_offset=-3 / threads=12 / sliced_threads=0 / nr=0 / decimate=1 / interlaced=0 / bluray_compat=0 / constrained_intra=0 / bframes=8 / b_pyramid=2 / b_adapt=2 / b_bias=0 / direct=3 / weightb=1 / open_gop=0 / weightp=2 / keyint=250 / keyint_min=23 / scenecut=40 / intra_refresh=0 / rc=2pass / mbtree=0 / bitrate=1580 / ratetol=1.0 / qcomp=0.60 / qpmin=0 / qpmax=69 / qpstep=4 / cplxblur=20.0 / qblur=0.5 / ip_ratio=1.40 / pb_ratio=1.30 / aq=1:1.00
Language: English
Audio
ID: 2
Format: AC-3
Format/Info: Audio Coding 3
Mode extension: CM (complete main)
Codec ID: A_AC3
Duration: 1h 36mn
Bit rate mode: Constant
Bit rate: 448 Kbps
Channel(s): 6 channels
Channel positions: Front: L C R, Side: L R, LFE
Sampling rate: 48.0 KHz
Bit depth: 16 bits
Compression mode: Lossy
Stream size: 309 MiB (22%)
Language: Russian
Menu
00:00:00.000: :Chapter 01
00:02:26.434: :Chapter 02
00:03:22.268: :Chapter 03
00:12:43.768: :Chapter 04
00:15:02.801: :Chapter 05
00:21:24.402: :Chapter 06
00:26:07.669: :Chapter 07
00:28:32.003: :Chapter 08
00:30:33.103: :Chapter 09
00:35:29.337: :Chapter 10
00:43:06.305: :Chapter 11
00:45:01.539: :Chapter 12
00:48:46.806: :Chapter 13
00:52:41.473: :Chapter 14
00:58:47.640: :Chapter 15
01:02:31.341: :Chapter 16
01:15:10.341: :Chapter 17
01:16:51.908: :Chapter 18
01:18:22.609: :Chapter 19
01:23:18.843: :Chapter 20
01:27:00.711: :Chapter 21
01:28:10.878: :Chapter 22
01:32:30.978: :Chapter 23



















реклама партнёра


Вернуться к началу
 Профиль  
 
   Похожие торренты   Автор   Торрент   Размер 
В этой теме нет новых непрочитанных сообщений. Сумасшедшие суки / Crazy Bitches (Джейн Кларк) [ужасы, 2014] WEB-DL 720p, dvo

Dracon

225 | 10

3.4 ГБ

В этой теме нет новых непрочитанных сообщений. Сумасшедшие суки / Crazy Bitches (Джейн Кларк) [ужасы, 2014] WEB-DLRip, dvo

Dracon

2 | 1

1.46 ГБ

В этой теме нет новых непрочитанных сообщений. Марьян / Maryan [триллер, драма, мелодрама, 2013] DVDRip, Mvo+Sub

salma3

105 | 27

1.89 ГБ

В этой теме нет новых непрочитанных сообщений. Снегурочка [Драма, мелодрама, триллер, 2013] DVDRip [Лицензия]

Dracon

346 | 19

1.46 ГБ

В этой теме нет новых непрочитанных сообщений. Заря / The Dawning [драма, мелодрама, триллер, 1988] DVDRip, Mvo

salma3

33 | 6

1.46 ГБ

В этой теме нет новых непрочитанных сообщений. Огнепоклонники / Blue Smoke [триллер, драма, мелодрама, 2007] DVDRip, Mvo

salma3

24 | 6

1.46 ГБ

В этой теме нет новых непрочитанных сообщений. Огнепоклонники / Blue Smoke [триллер, драма, мелодрама, 2007] DVDRip-AVC, Mvo

salma3

7 | 2

1.46 ГБ


СообщениеДобавлено: 08 май 2012, 14:01 

Не в сети
Супермодератор
Аватара пользователя
Дата регистрации:
11 апр 2010, 18:10
Спасибо: 5799 / 7
Сообщения: 56779
Сучки крашеные :lol:


Вернуться к началу
 Профиль Отправить личное сообщение  
 
Начать новую тему Ответить на тему  [ Сообщений: 2 ] 




Для Мосгорсуда, Роскомнадзора и рекламодателей:: mosgorsud-torrent[собачка]yandex.ru