Торрент файл
скачать торрент магнет ссылка Добавлен: 20 апр 2012, 20:15
Размер: 1.52 ГБ
Сидеров: 28
Личеров: 10
Статус: (Dracon)
Автор

СообщениеДобавлено: 20 апр 2012, 20:15 

Не в сети
Зам. Админа
Аватара пользователя
Дата регистрации:
02 дек 2010, 12:39
Спасибо: 12460 / 214
Сообщения: 27968

Год выхода: 2011
Режиссер: Даниэль Санчес Аревало
Жанр
: комедия

В ролях: Куим Гутьеррес, Инма Куэста, Рауль Аревало, Антонио де ла Торре, Адриан Ластра, Клара Лаго, Нурия Гэго, Алисия Рубио, Маркос Руис

О фильме:
Молодого Диего ровно накануне свадьбы бросает невеста. Он придумывает план, согласно которому пропажу невесты необходимо скрыть, появиться в церкви в день свадьбы, напиться, прочитать речь, заново влюбиться в свою первую подружку… и вернуть невесту.

Страна: Испания
Продолжительность: 01:34:55
Перевод: Профессиональный (многоголосный)

Качество: MKV
Качество: DVDRip-AVC
Видео: AVC at 1841 Кбит/сек,720 x 548@1024*548, 25.000 fps
Звук: AC-3 at 448 Кбит/сек,6 каналов, 48,0 КГц
Размер: 1.52 GB
Скачать: Сэмпл

Общее
Полное имя : F:Primos.DVDRip-AVC.2011.mkv
Формат : Matroska
Версия формата : Version 2
Размер файла : 1,52 Гбайт
Продолжительность : 1 ч. 34 м.
Общий поток : 2290 Кбит/сек
Дата кодирования : UTC 2011-09-21 03:21:42
Программа кодирования : mkvmerge v4.0.0 ('The Stars were mine') сборка от Jun 6 2010 16:18:42
Библиотека кодирования : libebml v1.0.0 + libmatroska v1.0.0

Видео
Идентификатор : 1
Формат : AVC
Формат/Информация : Advanced Video Codec
Профиль формата : High@L4.1
Параметр CABAC формата : Да
Параметр ReFrames формата : 7 кадров
Идентификатор кодека : V_MPEG4/ISO/AVC
Продолжительность : 1 ч. 34 м.
Битрейт : 1841 Кбит/сек
Ширина : 720 пикселей
Высота : 548 пикселей
Соотношение сторон : 16:9
Соотношение сторон в оригинале : 1,850
Частота кадров : 25,000 кадров/сек
Цветовое пространство : YUV
Субдискретизация насыщенности : 4:2:0
Битовая глубина : 8 бит
Тип развёртки : Прогрессивная
Бит/(Пиксели*Кадры) : 0.187
Размер потока : 1,19 Гбайт (78%)
Библиотека кодирования : x264 core 116 r2074 2641b9e
Настройки программы : cabac=1 / ref=7 / deblock=1:-2:-1 / analyse=0x3:0x133 / me=umh / subme=9 / psy=1 / psy_rd=1.00:0.00 / mixed_ref=1 / me_range=32 / chroma_me=1 / trellis=2 / 8x8dct=1 / cqm=0 / deadzone=21,11 / fast_pskip=1 / chroma_qp_offset=-2 / threads=12 / sliced_threads=0 / nr=0 / decimate=1 / interlaced=0 / bluray_compat=0 / constrained_intra=0 / bframes=5 / b_pyramid=2 / b_adapt=2 / b_bias=0 / direct=3 / weightb=1 / open_gop=0 / weightp=2 / keyint=250 / keyint_min=25 / scenecut=40 / intra_refresh=0 / rc_lookahead=50 / rc=2pass / mbtree=1 / bitrate=1841 / ratetol=1.0 / qcomp=0.60 / qpmin=0 / qpmax=69 / qpstep=4 / cplxblur=20.0 / qblur=0.5 / ip_ratio=1.40 / aq=1:1.00
Язык : English

Аудио
Идентификатор : 2
Формат : AC-3
Формат/Информация : Audio Coding 3
Расширение режима : CM (complete main)
Идентификатор кодека : A_AC3
Продолжительность : 1 ч. 34 м.
Вид битрейта : Постоянный
Битрейт : 448 Кбит/сек
Каналы : 6 каналов
Расположение каналов : Front: L C R, Side: L R, LFE
Частота : 48,0 КГц
Битовая глубина : 16 бит
Метод сжатия : С потерями
Размер потока : 304 Мбайт (20%)
Заголовок : MVO
Язык : Russian




реклама партнёра


Вернуться к началу
 Профиль  
 
   Похожие торренты   Автор   Торрент   Размер 
В этой теме нет новых непрочитанных сообщений. Мальчик-игрушка / Boy Toy [Комедия, 2011] DVDRip, Mvo

salma3

223 | 11

1.37 ГБ

В этой теме нет новых непрочитанных сообщений. Маска / Mugamoodi [боевик, комедия, криминал, 2011] DVDRip, sub

salma3

3 | 5

1.46 ГБ

В этой теме нет новых непрочитанных сообщений. Любовь повсюду / Engeyum Kadhal [Комедия, романтика, 2011] DVDRip, Mvo+Sub

salma3

21 | 7

1.46 ГБ

В этой теме нет новых непрочитанных сообщений. Панки живы / Pankot ne e mrtov [Драма, комедия, 2011] DVDRip, Avo

salma3

34 | 5

1.37 ГБ

В этой теме нет новых непрочитанных сообщений. Поцелуй для Джеда Вуда / A Kiss for Jed Wood [комедия, 2011] DVDRip, Dvo

salma3

15 | 3

1.36 ГБ

В этой теме нет новых непрочитанных сообщений. Шато Меро / The Chateau Meroux [мелодрама, комедия, 2011] DVDRip, Dvo

salma3

69 | 4

696.27 МБ

В этой теме нет новых непрочитанных сообщений. Двойная забава / Double Dhamaal [Драма, комедия, криминал, 2011] DVDRip, Dub

salma3

8 | 6

2.05 ГБ


Начать новую тему Ответить на тему  [ 1 сообщение ] 




Для Мосгорсуда, Роскомнадзора и рекламодателей:: mosgorsud-torrent[собачка]yandex.ru