Торрент файл
скачать торрент магнет ссылка Добавлен: 18 апр 2012, 16:37
Размер: 749.54 МБ
Сидеров: 17
Личеров: 4
Статус: (Dracon)
Автор

СообщениеДобавлено: 18 апр 2012, 16:37 

Не в сети
Зам. Админа
Аватара пользователя
Дата регистрации:
02 дек 2010, 12:39
Спасибо: 12461 / 214
Сообщения: 27968

Год выхода: 1989
Жанр: боевик, триллер, комедия, криминал
Режиссер: Андрей Кончаловский / Andrei Konchalovsky
В ролях: Сильвестр Сталлоне, Курт Рассел, Тери Хэтчер, Джек Пэланс, Брайон Джеймс, Джеймс Хонг, Марк Алаймо, Филип Тан, Майкл Дж. Поллард, Роберт З’Дар

О фильме:
Герои фильма — Танго и Кэш. Эти соперничающие друг с другом копы обладают одной общей чертой: каждый думает, что он самый лучший, и каждый имеет бесспорные доказательства этого.

Страна: США
Продолжительность: 01:43:46
Перевод: Профессиональный (дублированный) Перевод студии "Мосфильм"

Кодек: XviD / MP3
Качество: HDRip
Видео: XviD, 656x368 (16:9), 25 fps, ~873 kbps, 0.151 bit/pixel
Звук: MP3, 48 kHz, 2 ch, 128.00 kbps, Русский

Общее
Полное имя : Tango.i.Kjesh.1989.HDRip.745MB.avi
Формат : AVI
Формат/Информация : Audio Video Interleave
Размер файла : 750 Мбайт
Продолжительность : 1 ч. 43 м.
Общий поток : 1010 Кбит/сек
Программа кодирования : VirtualDubMod 1.5.10.3 | http://www.virtualdub-fr.org || (build 2550/release)
Библиотека кодирования : VirtualDubMod build 2550/release

Видео
Идентификатор : 0
Формат : MPEG-4 Visual
Профиль формата : Advanced Simple@L5
Параметр BVOP формата : 1
Параметр QPel формата : Нет
Параметр GMC формата : Без точки перехода
Параметр матрицы формата : Выборочная
Идентификатор кодека : XVID
Идентификатор кодека/Подсказка : XviD
Продолжительность : 1 ч. 43 м.
Битрейт : 873 Кбит/сек
Ширина : 656 пикселей
Высота : 368 пикселей
Соотношение сторон : 16:9
Частота кадров : 23,976 кадра/сек
Цветовое пространство : YUV
Субдискретизация насыщенности : 4:2:0
Битовая глубина : 8 бит
Тип развёртки : Прогрессивная
Метод сжатия : С потерями
Бит/(Пиксели*Кадры) : 0.151
Размер потока : 648 Мбайт (86%)
Библиотека кодирования : XviD 1.2.1 (UTC 2008-12-04)

Аудио
Идентификатор : 1
Формат : MPEG Audio
Версия формата : Version 1
Профиль формата : Layer 3
Идентификатор кодека : 55
Идентификатор кодека/Подсказка : MP3
Продолжительность : 1 ч. 43 м.
Вид битрейта : Постоянный
Битрейт : 128 Кбит/сек
Каналы : 2 канала
Частота : 48,0 КГц
Метод сжатия : С потерями
Размер потока : 95,0 Мбайт (13%)
Выравнивание : Соединение по промежуткам
Продолжительность промежутка : 42 мс. (1,00 видеокадр)
Время предзагрузки промежутка : 504 мс.
Библиотека кодирования : LAME3.98r




реклама партнёра


Вернуться к началу
 Профиль  
 
   Похожие торренты   Автор   Торрент   Размер 
В этой теме нет новых непрочитанных сообщений. Виски. Танго. Фокстрот / Репортерша / Whiskey Tango Foxtrot [комедия, военный, 2016] BDRip, Dub [Лицензия]

salma3

505 | 26

1.46 ГБ

В этой теме нет новых непрочитанных сообщений. Тяжелые деньги / Hard Cash [боевик, триллер, криминал, 2002] WEB-DL 720p, Mvo

salma3

45 | 7

3.4 ГБ

В этой теме нет новых непрочитанных сообщений. Шальные деньги: Роскошная жизнь / Snabba cash - Livet deluxe [боевик, драма, криминал, 2013] HDRip, avo

Dracon

271 | 9

1.45 ГБ

В этой теме нет новых непрочитанных сообщений. Шальные деньги: Роскошная жизнь / Snabba cash - Livet deluxe [триллер, драма, криминал, 2013] HDRip, Mvo [НТВ+]

salma3

485 | 26

1.46 ГБ

В этой теме нет новых непрочитанных сообщений. Тяжелые деньги / Трудные деньги / Run for the Money / Hard Cash [Боевик, триллер, криминал. 2002] WEB-DLRip, Mvo

salma3

44 | 27

1.46 ГБ

В этой теме нет новых непрочитанных сообщений. Слепая ярость / Blind Fury [боевик, триллер, драма, комедия, криминал, 1989] Blu-ray 1080p, Dub+Mvo+Avo

salma3

11 | 3

20.3 ГБ

В этой теме нет новых непрочитанных сообщений. Слепая ярость / Blind Fury [Боевик, триллер, драма, комедия, криминал, 1989] BDRip, Dub+Mvo+Avo+Dvo+Sub

salma3

89 | 20

2.16 ГБ


Начать новую тему Ответить на тему  [ 1 сообщение ] 




Для Мосгорсуда, Роскомнадзора и рекламодателей:: mosgorsud-torrent[собачка]yandex.ru