Торрент файл
скачать торрент магнет ссылка Добавлен: 01 апр 2012, 21:59
Размер: 1.31 ГБ
Сидеров: 20
Личеров: 6
Автор

СообщениеДобавлено: 01 апр 2012, 21:59 

Не в сети
Супермодератор
Аватара пользователя
Дата регистрации:
11 апр 2010, 18:10
Спасибо: 5941 / 7
Сообщения: 56776
Пожнешь бурю / Inherit the Wind

Перевод: Профессиональный (многоголосый, закадровый), cубтитры: отсутствуют

Формат: DVDRip, AVI, XviD, MP3
Страна: США

Режиссер: Стэнли Крамер
Жанр: драма
Продолжительность: 02:08:30
Год выпуска: 1960

В ролях: Спенсер Трэйси, Фредерик Марч, Джинн Келли, Дин Йорк

Описание: Летом 1925 года в штате Теннесси состоялся один из самых зрелищных и смехотворных судебных процессов в истории американской юриспруденции. Учитель по имени Джон Т.Скоупс был арестован за преподавание учения Дарвина. Обвинителем Скоупса был столп фундаментализма Уильям Дженнингс Брайан, а защитником - проповедник либерального образа мышления Клэренс Дэрроу. Имена исторических лиц в картине изменены, но сами они очень и очень узнаваемы. Фильм остро обнажает фарсовость "Обезьяньего процесса". Этот фильм единственный, где Трэйси и Марч играют вместе. Жена Марча в реальной жизни, Флоренс Элдридж, играет его супругу и на экране, а Гарри Морган создал прекрасный образ судьи. Большая часть диалогов перенесена из популярной бродвейской пьесы Лоуренса и Ли, где впервые были заняты Пол Муни и Эд Бегли.



Видео: 640x400 (1.60:1), 23.976 fps, XviD 1.2 beta 1 (build 43) ~1324 kbps avg, 0.22 bit/pixel
Аудио: 48 kHz, MPEG Layer 3, 2 ch, ~128.00 kbps avg

General
Complete name: D:\Фильмы\pozhnesh_burju_[tfile.ru].avi
Format: AVI
Format/Info: Audio Video Interleave
File size: 1.31 GiB
Duration: 2h 8mn
Overall bit rate: 1 461 Kbps
Movie name: Inherit the Wind
Director: Stanley Kramer
Writing application: VirtualDubMod 1.5.10.2 (build 2540/release)
Writing library: VirtualDubMod build 2540/release
Comment: fenixclub.com

Video
ID: 0
Format: MPEG-4 Visual
Format profile: Advanced Simple@L5
Format settings, BVOP: 1
Format settings, QPel: No
Format settings, GMC: No warppoints
Format settings, Matrix: Custom
Codec ID: XVID
Codec ID/Hint: XviD
Duration: 2h 8mn
Bit rate: 1 324 Kbps
Width: 640 pixels
Height: 400 pixels
Display aspect ratio: 1.600
Frame rate: 23.976 fps
Color space: YUV
Chroma subsampling: 4:2:0
Bit depth: 8 bits
Scan type: Progressive
Compression mode: Lossy
Bits/(Pixel*Frame): 0.216
Stream size: 1.19 GiB (91%)
Writing library: XviD 1.2.0SMP (UTC 2006-01-0

Audio
ID: 1
Format: MPEG Audio
Format version: Version 1
Format profile: Layer 3
Codec ID: 55
Codec ID/Hint: MP3
Duration: 2h 8mn
Bit rate mode: Constant
Bit rate: 128 Kbps
Channel(s): 2 channels
Sampling rate: 48.0 KHz
Compression mode: Lossy
Stream size: 117 MiB (9%)
Alignment: Aligned on interleaves
Interleave, duration: 42 ms (1.00 video frame)
Interleave, preload duration: 504 ms


1960 — Берлинского кинофестиваля
Серебряный медведь за лучшую мужскую роль (Фредерик Марч)
Серебряный медведь за лучший фильм для детей

1960 — премия Оскар
номинации в четырёх категориях (лучшая мужская роль, лучшая операторская работа в чёрно-белом фильме, лучший монтаж, лучший адаптированный сценарий)

1961 — премия BAFTA
номинации в трёх категориях

1961 — премия Золотой глобус
номинации в двух категориях









Поделиться:




реклама партнёра


Вернуться к началу
 Профиль Отправить личное сообщение  
 
   Похожие торренты   Автор   Торрент   Размер 
В этой теме нет новых непрочитанных сообщений. Что посеешь, то и пожнешь / Turnabout [драма, 2016] WEB-DLRip, Mvo

salma3

138 | 36

1.35 ГБ

В этой теме нет новых непрочитанных сообщений. The Wind In The Willows - The Wind In The Willows [2000, Psychedelic Rock, MP3]

PriZraK

0 | 1

93.67 МБ

В этой теме нет новых непрочитанных сообщений. Sacred Wind - Sacred Wind [2014, Symphonic Heavy Metal, Power Metal, MP3]

PriZraK

3 | 3

155.53 МБ

В этой теме нет новых непрочитанных сообщений. Призраки / Wind Chill [ужасы, триллер, драма, 2007] WEB-DL 720p, Mvo

salma3

144 | 30

2.95 ГБ

В этой теме нет новых непрочитанных сообщений. Призраки / Wind Chill [ужасы, триллер, драма, 2007] HDTV 1080i, Mvo

salma3

222 | 55

3.64 ГБ

В этой теме нет новых непрочитанных сообщений. Слова, написанные на ветру / Written on the Wind [Драма, мелодрама, 1956] BDRip 1080p, Mvo+Sub

salma3

8 | 20

8.88 ГБ

В этой теме нет новых непрочитанных сообщений. Крепость на колёсах [военный, 1960] DVDRip-AVC

salma3

52 | 7

1.52 ГБ


Начать новую тему Ответить на тему  [ 1 сообщение ] 




Для Мосгорсуда, Роскомнадзора и рекламодателей:: mosgorsud-torrent[собачка]yandex.ru