Торрент файл
скачать торрент магнет ссылка Добавлен: 01 апр 2012, 21:54
Размер: 2.19 ГБ
Сидеров: 11
Личеров: 11
Автор

СообщениеДобавлено: 01 апр 2012, 21:54 

Не в сети
Супермодератор
Аватара пользователя
Дата регистрации:
11 апр 2010, 18:10
Спасибо: 5801 / 7
Сообщения: 56779
[b]Альфавиль / Alphaville, une etrange aventure de Lemmy Caution[/b]


Слоган: Suddenly the word is Alphaville... and a secret agent is in a breathless race against the Masters of the Future.

Перевод: Профессиональный (многоголосый, закадровый)
Cубтитры: русские, английские
Формат: DVDRip-AVC, MKV, H.264, AC3
Страна: Франция, Италия
Режиссер: Жан-Люк Годар
Жанр: фантастика, триллер, драма, мелодрама, детектив
Продолжительность: 01:35:16
Год выпуска: 1965

В ролях: Эдди Константин, Анна Карина, Аким Тамирофф, Валери Буажель, Жан-Луи Комолли, Мишель Дилэй, Криста Лэнг, Жан-Пьер Лео, Ласло Сабо

Описание: Альфавиль — тоталитарное общество, находящееся в миллионах световых лет от нашей планеты и управляемое электронным Альфа-мозгом. Создал его сбежавший с Земли профессор Носферату, скрывающийся здесь под именем фон Браун.

На Земле опасаются инопланетного вторжения, поэтому частный детектив Лемми Кошен получает задание — вернуть назад или убить профессора. Прибыв на место, Лемми влюбляется в его дочь Наташу (24-летняя Анна Карина, муза «раннего» Годара).




Видео: 702x576@749x576 (4:2:0), 25,000 fps, AVC (х264), ~ 2898 Kbps, 0.287 bit/pixel
Аудио#1: Французский: 48 kHz, AC3, 2 ch, 192 kbps [Оригинал]
Аудио#2: Русский: 48 kHz, AC3, 2 ch, 192 kbps [Профессиональный (многоголосый, закадровый)]

Дополнительная информация: Фильму был вручен Золотой Медведь на Берлинском кинофестивале в 1965 году

Общее
Уникальный идентификатор: 220698558732084901680025123952739171819 (0xA608FF0D28685802AB269472F51F3DEB)
Полное имя: alfavil_[tfile.ru].mkv
Формат: Matroska
Версия формата: Version 2
Размер файла: 2,19 Гбайт
Продолжительность: 1 ч. 35 м.
Общий поток: 3284 Кбит/сек
Название фильма: Alphaville (1964)
Кодирование произвёл: [tRuAVC]shellgen
Дата кодирования: UTC 2009-12-06 12:16:51
Программа кодирования: mkvmerge v2.9.8 ('C'est le bon') built on Aug 13 2009 12:49:06
Библиотека кодирования: libebml v0.7.7 + libmatroska v0.8.1
TITLE: Alphaville (1964) [tRuAVC]
DIRECTOR: Jean-Luc Godard
AUTHOR: Jean-Luc Godard
COPYRIGHT: [tRuAVC]shellgen 30-11-2009
DESCRIPTION: Science fiction | Drama | Thriller
DATE_RELEASED: 07-12-2009
COMMENT: DVDRip/x264/DD (Source: PAL DVD9 CRITERION) tRuAVC
Attachment: Yes

Видео
Идентификатор: 1
Формат: AVC
Формат/Информация: Advanced Video Codec
Профиль формата: High@L4.1
Параметр CABAC формата: Да
Параметр ReFrames формата: 12 кадров
Идентификатор кодека: V_MPEG4/ISO/AVC
Продолжительность: 1 ч. 35 м.
Битрейт: 2898 Кбит/сек
Ширина: 702 пикселя
Высота: 576 пикселей
Соотношение сторон: 1,300
Частота кадров: 25,000 кадров/сек
Цветовое пространство: YUV
Субдискретизация насыщенности: 4:2:0
Битовая глубина: 8 бит
Тип развёртки: Прогрессивная
Бит/(Пиксели*Кадры): 0.287
Размер потока: 1,89 Гбайт (86%)
Заголовок: x264: 702x576 SAR 16:15 @ 25fps ~2898Kbps
Библиотека кодирования: x264 core 79 r1352kMod d487de4
Настройки программы: cabac=1 / ref=12 / deblock=0:-1:-1 / analyse=0x3:0x133 / me=umh / subme=10 / psy=1 / psy_rd=0.9:0.2 / mixed_ref=1 / me_range=20 / chroma_me=1 / trellis=2 / 8x8dct=1 / cqm=0 / deadzone=21,11 / chroma_qp_offset=-3 / threads=1 / nr=0 / decimate=1 / mbaff=0 / constrained_intra=0 / bframes=8 / b_pyramid=2 / b_adapt=2 / b_bias=0 / direct=3 / wpredb=1 / wpredp=2 / keyint=250 / keyint_min=25 / scenecut=40 / rc_lookahead=0 / rc=2pass / mbtree=0 / bitrate=2898 / ratetol=1.0 / qcomp=0.75 / qpmin=10 / qpmax=51 / qpstep=4 / cplxblur=20.0 / qblur=0.5 / vbv_maxrate=50000 / vbv_bufsize=62500 / ip_ratio=1.20 / pb_ratio=1.30 / aq=1:0.80
Язык: French
Коэффициенты матрицы: BT.470-6 System B, BT.470-6 System G, BT.601-6 625, BT.1358 625, BT.1700 625 PAL, BT.1700 625 SECAM, IEC 61966-2-4 601

Аудио #1
Идентификатор: 2
Формат: AC-3
Формат/Информация: Audio Coding 3
Расширение режима: CM (complete main)
Идентификатор кодека: A_AC3
Продолжительность: 1 ч. 35 м.
Вид битрейта: Постоянный
Битрейт: 192 Кбит/сек
Каналы: 2 канала
Расположение каналов: Front: L R
Частота: 48,0 КГц
Битовая глубина: 16 бит
Метод сжатия: С потерями
Размер потока: 131 Мбайт (6%)
Заголовок: DD 2.0 48KHz 192Kbps
Язык: French

Аудио #2
Идентификатор: 3
Формат: AC-3
Формат/Информация: Audio Coding 3
Расширение режима: CM (complete main)
Идентификатор кодека: A_AC3
Продолжительность: 1 ч. 35 м.
Вид битрейта: Постоянный
Битрейт: 192 Кбит/сек
Каналы: 2 канала
Расположение каналов: Front: L R
Частота: 48,0 КГц
Битовая глубина: 16 бит
Метод сжатия: С потерями
Размер потока: 131 Мбайт (6%)
Заголовок: DD 2.0 48KHz 192Kbps MVO FP
Язык: Russian

Текст #1
Идентификатор: 4
Формат: UTF-8
Идентификатор кодека: S_TEXT/UTF8
Идентификатор кодека/Информация: UTF-8 Plain Text
Язык: English

Текст #2
Идентификатор: 5
Формат: UTF-8
Идентификатор кодека: S_TEXT/UTF8
Идентификатор кодека/Информация: UTF-8 Plain Text
Язык: Russian

Меню
00:00:00.000: en:Chapter 1
00:03:46.640: en:Chapter 2
00:09:37.200: en:Chapter 3
00:13:50.800: en:Chapter 4
00:16:32.400: en:Chapter 5
00:20:15.920: en:Chapter 6
00:23:37.320: en:Chapter 7
00:28:40.640: en:Chapter 8
00:34:50.200: en:Chapter 9
00:39:14.640: en:Chapter 10
00:44:05.320: en:Chapter 11
00:49:15.400: en:Chapter 12
00:55:36.600: en:Chapter 13
00:58:59.120: en:Chapter 14
01:01:29.240: en:Chapter 15
01:03:43.520: en:Chapter 16
01:08:21.040: en:Chapter 17
01:12:02.920: en:Chapter 18
01:14:37.800: en:Chapter 19
01:17:17.080: en:Chapter 20
01:21:34.840: en:Chapter 21
01:25:59.680: en:Chapter 22
01:29:04.680: en:Chapter 23
01:32:26.400: en:Chapter 24















[/shots]

















Поделиться:




реклама партнёра


Вернуться к началу
 Профиль Отправить личное сообщение  
 
   Похожие торренты   Автор   Торрент   Размер 
В этой теме нет новых непрочитанных сообщений. Странный цвет слез твоего тела / L'étrange couleur des larmes de ton corps (Элен Катте, Брюно Форзани) [2013, триллер, детектив, DVDRip] dvo

Nickolas3435

451 | 11

1.55 ГБ

В этой теме нет новых непрочитанных сообщений. Время приключений / Le temps de l'aventure [драма, мелодрама, 2013] DVDRip, Sub

salma3

25 | 2

1.37 ГБ

В этой теме нет новых непрочитанных сообщений. Исчезнувшая Банни Лейк / Bunny Lake Is Missing [триллер, детектив, 1965] DVDRip, Mvo

salma3

25 | 3

1.46 ГБ

В этой теме нет новых непрочитанных сообщений. Любовь в Кашмире / Arzoo [мюзикл, драма, мелодрама, 1965] DVDRip, Dub

salma3

11 | 5

2.19 ГБ

В этой теме нет новых непрочитанных сообщений. Бесчеловечный / Janwar [мюзикл, мелодрама, 1965] DVDRip, Avo+Sub

salma3

1 | 4

1.46 ГБ

В этой теме нет новых непрочитанных сообщений. Bepcия 1.0 / Оnе Роint О [фантастика, ужасы, триллер, драма, детектив, 2004] DVDRip, Mvo

salma3

37 | 12

1.42 ГБ

В этой теме нет новых непрочитанных сообщений. Белль и Себастьян, приключение продолжается / Belle et Sébastien, l'aventure continue [приключения, семейный, 2015] DVDRip, Avo

salma3

272 | 15

1.46 ГБ


Начать новую тему Ответить на тему  [ 1 сообщение ] 




Для Мосгорсуда, Роскомнадзора и рекламодателей:: mosgorsud-torrent[собачка]yandex.ru