Торрент файл
скачать торрент магнет ссылка Добавлен: 01 апр 2012, 21:53
Размер: 2.18 ГБ
Сидеров: 38
Личеров: 7
Автор

СообщениеДобавлено: 01 апр 2012, 21:53 

Не в сети
Супермодератор
Аватара пользователя
Дата регистрации:
11 апр 2010, 18:10
Спасибо: 5799 / 7
Сообщения: 56779
[b]Человек из Рио / L'homme de Rio[/b]


Слоган: Parachutes... Alligators... Murderers... Women...You think it's easy? "Only For A Great Adventurer Like Me!"

Перевод: Профессиональный (полное дублирование)
Cубтитры: отсутствуют
Формат: DVDRip-AVC, MKV, H.264, AC3
Страна: Франция, Италия
Режиссер: Филипп де Брока
Жанр: боевик, мелодрама, комедия, приключения
Продолжительность: 01:50:52
Год выпуска: 1964

В ролях: Жан-Поль Бельмондо, Франсуаза Дорлеак, Жан Сервэ, Роже Дюма, Даниэль Секкальди, Милтон Рибейро, Сабу До Бразил, Адольфо Чели, Симона Ренан

Описание: Похищена бесценная индейская статуэтка, а вместе с ней и дочь хозяина сокровища — красавица Аньес. Жених девушки Адриан отправляется в погоню за похитителями. Он не представляет, какие испытания его ждут впереди…



Видео: 720x462@768x462 (4:2:0), 25,000 fps, AVC (х264) High@L4.1, ~ 2435 Kbps, 0.293 bit/pixel
Аудио#1: Русский: 48 kHz, AC3, 2 ch, 192 kbps [Профессиональный (полное дублирование)]
Аудио#2: Французский: 48 kHz, AC3, 2 ch, 192 kbps [Оригинал]

Общее
Уникальный идентификатор: 202939846539928896787001588973253406464 (0x98ACCAF0C01BD199B2AB0E120ABFAF00)
Полное имя: chelovek_iz_rio_[tfile.ru].mkv
Формат: Matroska
Версия формата: Version 2
Размер файла: 2,18 Гбайт
Продолжительность: 1 ч. 50 м.
Режим общего битрейта: Переменный
Общий поток: 2821 Кбит/сек
Название фильма: L'Homme de Rio
Дата кодирования: UTC 2011-04-06 15:46:58
Программа кодирования: mkvmerge v4.6.0 ('Still Crazy After All These Years') сборка от Mar 10 2011 02:50:32
Библиотека кодирования: libebml v1.2.0 + libmatroska v1.1.0
Attachment: Poster

Видео
Идентификатор: 1
Формат: AVC
Формат/Информация: Advanced Video Codec
Профиль формата: High@L4.1
Параметр CABAC формата: Да
Параметр ReFrames формата: 8 кадров
Идентификатор кодека: V_MPEG4/ISO/AVC
Продолжительность: 1 ч. 50 м.
Вид битрейта: Переменный
Битрейт: 2435 Кбит/сек
Максимальный битрейт: 25,0 Мбит/сек
Ширина: 720 пикселей
Высота: 462 пикселя
Соотношение сторон: 1,662
Соотношение сторон в оригинале: 1,558
Частота кадров: 25,000 кадров/сек
Цветовое пространство: YUV
Субдискретизация насыщенности: 4:2:0
Битовая глубина: 8 бит
Тип развёртки: Прогрессивная
Бит/(Пиксели*Кадры): 0.293
Размер потока: 1,84 Гбайт (84%)
Заголовок: L'Homme de Rio
Библиотека кодирования: x264 core 114 r1924 08d04a4
Настройки программы: cabac=1 / ref=8 / deblock=1:-1:1 / analyse=0x3:0x133 / me=umh / subme=9 / psy=1 / psy_rd=1.00:0.00 / mixed_ref=1 / me_range=16 / chroma_me=1 / trellis=1 / 8x8dct=1 / cqm=0 / deadzone=21,11 / fast_pskip=1 / chroma_qp_offset=-2 / threads=6 / sliced_threads=0 / nr=0 / decimate=1 / interlaced=0 / constrained_intra=0 / bframes=12 / b_pyramid=0 / b_adapt=1 / b_bias=0 / direct=1 / weightb=1 / open_gop=0 / weightp=2 / keyint=250 / keyint_min=25 / scenecut=40 / intra_refresh=0 / rc_lookahead=40 / rc=2pass / mbtree=1 / bitrate=2435 / ratetol=1.0 / qcomp=0.60 / qpmin=0 / qpmax=69 / qpstep=4 / cplxblur=20.0 / qblur=0.5 / vbv_maxrate=25000 / vbv_bufsize=25000 / nal_hrd=vbr / ip_ratio=1.40 / aq=1:1.00
Язык: French

Аудио #1
Идентификатор: 2
Формат: AC-3
Формат/Информация: Audio Coding 3
Расширение режима: CM (complete main)
Идентификатор кодека: A_AC3
Продолжительность: 1 ч. 50 м.
Вид битрейта: Постоянный
Битрейт: 192 Кбит/сек
Каналы: 2 канала
Расположение каналов: Front: L R
Частота: 48,0 КГц
Битовая глубина: 16 бит
Метод сжатия: С потерями
Размер потока: 152 Мбайт (7%)
Заголовок: Dub
Язык: Russian

Аудио #2
Идентификатор: 3
Формат: AC-3
Формат/Информация: Audio Coding 3
Расширение режима: CM (complete main)
Идентификатор кодека: A_AC3
Продолжительность: 1 ч. 50 м.
Вид битрейта: Постоянный
Битрейт: 192 Кбит/сек
Каналы: 2 канала
Расположение каналов: Front: L R
Частота: 48,0 КГц
Битовая глубина: 16 бит
Метод сжатия: С потерями
Размер потока: 152 Мбайт (7%)
Заголовок: Original
Язык: French

Меню
00:00:00.000: en:Chapter 1
00:07:36.000: en:Chapter 2
00:25:29.760: en:Chapter 3
00:38:05.760: en:Chapter 4
00:49:32.160: en:Chapter 5
01:01:56.600: en:Chapter 6
01:15:32.120: en:Chapter 7
01:25:16.760: en:Chapter 8
01:34:47.000: en:Chapter 9
01:46:00.440: en:Chapter 10















[/shots]

















Поделиться:




реклама партнёра


Вернуться к началу
 Профиль Отправить личное сообщение  
 
   Похожие торренты   Автор   Торрент   Размер 
В этой теме нет новых непрочитанных сообщений. Человек из Рио / L'Homme de Rio [комедия, мелодрама, приключения, боевик, 1964] HDRip, Dub

salma3

32 | 5

1.46 ГБ

В этой теме нет новых непрочитанных сообщений. Человек-оркестр / L'Homme Orchestre [мюзикл, комедия, 1970] BDRip 720p, Dub+Dvo+Sub

salma3

77 | 20

3.1 ГБ

В этой теме нет новых непрочитанных сообщений. Первый человек / Le premier homme (Джанни Амелио) [2011, драма, DVDRip] Sub

Nickolas3435

24 | 2

1.4 ГБ

В этой теме нет новых непрочитанных сообщений. Мужчина, который любил женщин / L'homme qui aimait les femmes [драма, мелодрама, комедия, 1977] DVDRip, Dvo

salma3

7 | 2

1.45 ГБ

В этой теме нет новых непрочитанных сообщений. Дворцовый переворот / La rivolta dei pretoriani [драма, приключения, боевик, 1964] DVDRip, Dvo

salma3

4 | 3

1.48 ГБ

В этой теме нет новых непрочитанных сообщений. Степная орда / I Predoni della steppa [Боевик, драма, приключения, 1964] DVDRip, Mvo

salma3

19 | 7

1.37 ГБ

В этой теме нет новых непрочитанных сообщений. Любовь на троих / L'amour aux trousses (Филипп де Шоврон / Philippe de Chauveron) [2005 г., Франция, комедия, мелодрама, криминал, DVDRip] DVO

Alfredovich

4 | 3

1.36 ГБ


Начать новую тему Ответить на тему  [ 1 сообщение ] 




Для Мосгорсуда, Роскомнадзора и рекламодателей:: mosgorsud-torrent[собачка]yandex.ru