Торрент файл
скачать торрент магнет ссылка Добавлен: 01 апр 2012, 21:50
Размер: 2.1 ГБ
Сидеров: 30
Личеров: 7
Автор

СообщениеДобавлено: 01 апр 2012, 21:50 

Не в сети
Супермодератор
Аватара пользователя
Дата регистрации:
11 апр 2010, 18:10
Спасибо: 5913 / 7
Сообщения: 56777
Сисси. Трудные годы Императрицы / Sissi - Schicksalsjahre einer Kaiserin


Перевод: Профессиональный (многоголосый, закадровый), cубтитры: отсутствуют
Формат: HDRip-AVC, MKV, H.264, AC3
Страна: Австрия
Режиссер: Эрнст Маришка
Жанр: драма, мелодрама, комедия, история
Продолжительность: 01:48:41
Год выпуска: 1957

В ролях: Роми Шнайдер, Карлхайнц Бём, Магда Шнайдер, Ута Франц, Густав Кнут, Вильма Дегишер, Йозеф Майнрад, Ерих Никовитц, Карл Фохлер, Франц Бёхайм

Описание: Елизавета продолжает воспитывать детей, занимается государственными делами и достойно противостоит козням своей свекрови. Когда они вместе с графом Андраши уезжают в Венгрию, чтобы успокоить взбунтовавшихся дворян, эрцгерцогиня Софи распространяет слухи об их романе.
Дипломатическая миссия успешно выполнена, но тяжелая болезнь вынуждает Елизавету отправиться на лечение в Грецию. Едва выздоровев, она едет навстречу Францу-Иосифу, чтобы опровергнуть злые домыслы свекрови и посетить итальянские владения Австро-Венгрии.
Несмотря на недовольство австрийским владычеством, итальянские вельможи, покоренные благородством Елизаветы, склоняют головы перед царственной четой…




Видео: 1280 x 712 (1.80:1), 23.976 fps, AVC (х264), High@L4.1, ~ 2575 Kbps Kbps, 0.118 bit/pixel
Аудио: 48 kHz, AC3 Dolby Digital, 2/0 (L,R) ch, ~192 kbps avg

General
Unique ID: 204807003423104197999754631389800474978 (0x9A1464E1DAF15DC8914359C83DC6A962)
Complete name: F:\Мои релизы\Все релизы 10\sissi_3_[tfile.ru].mkv
Format: Matroska
File size: 2.10 GiB
Duration: 1h 48mn
Overall bit rate: 2 769 Kbps
Encoded date: UTC 2012-03-26 08:20:55
Writing application: mkvmerge v4.6.0 ('Still Crazy After All These Years') сборка от Apr1 2011 21:01:49
Writing library: libebml v1.2.0 + libmatroska v1.1.0

Video
ID: 1
Format: AVC
Format/Info: Advanced Video Codec
Format profile: High@L4.1
Format settings, CABAC: Yes
Format settings, ReFrames: 4 frames
Codec ID: V_MPEG4/ISO/AVC
Duration: 1h 48mn
Bit rate: 2 575 Kbps
Width: 1 280 pixels
Height: 712 pixels
Display aspect ratio: 16:9
Frame rate: 23.976 fps
Color space: YUV
Chroma subsampling: 4:2:0
Bit depth: 8 bits
Scan type: Progressive
Bits/(Pixel*Frame): 0.118
Stream size: 1.91 GiB (91%)
Writing library: x264 core 115 r1937 aa21558
Encoding settings: cabac=1 / ref=3 / deblock=1:-1:-1 / analyse=0x3:0x113 / me=hex / subme=7 / psy=1 / psy_rd=1.00:0.10 / mixed_ref=1 / me_range=16 / chroma_me=1 / trellis=1 / 8x8dct=1 / cqm=0 / deadzone=21,11 / fast_pskip=1 / chroma_qp_offset=-3 / threads=6 / sliced_threads=0 / nr=0 / decimate=1 / interlaced=0 / bluray_compat=0 / constrained_intra=0 / bframes=3 / b_pyramid=2 / b_adapt=1 / b_bias=0 / direct=3 / weightb=1 / open_gop=0 / weightp=2 / keyint=250 / keyint_min=23 / scenecut=40 / intra_refresh=0 / rc_lookahead=40 / rc=2pass / mbtree=1 / bitrate=2575 / ratetol=1.0 / qcomp=0.60 / qpmin=0 / qpmax=69 / qpstep=4 / cplxblur=20.0 / qblur=0.5 / ip_ratio=1.40 / aq=1:1.00

Audio
ID: 2
Format: AC-3
Format/Info: Audio Coding 3
Mode extension: CM (complete main)
Codec ID: A_AC3
Duration: 1h 48mn
Bit rate mode: Constant
Bit rate: 192 Kbps
Channel(s): 2 channels
Channel positions: Front: L R
Sampling rate: 48.0 KHz
Bit depth: 16 bits
Compression mode: Lossy
Stream size: 149 MiB (7%)

















Поделиться:




реклама партнёра


Вернуться к началу
 Профиль Отправить личное сообщение  
 
   Похожие торренты   Автор   Торрент   Размер 
В этой теме нет новых непрочитанных сообщений. Мальчик на дельфине / Boy on a Dolphin [драма, мелодрама, приключения, 1957] HDRip-AVCM, Mvo

salma3

37 | 6

745.05 МБ

В этой теме нет новых непрочитанных сообщений. Подлинная история Джесси Джеймса / The True Story of Jesse James [боевик, криминал, вестерн, биография, 1957] HDRip, Mvo

salma3

23 | 11

1.45 ГБ

В этой теме нет новых непрочитанных сообщений. Балтийская слава [драма, история, военный, приключения, 1957] DVDRip

salma3

20 | 5

1.09 ГБ

В этой теме нет новых непрочитанных сообщений. Балтийская слава [драма, история, военный, приключения, 1957] DVDRip-AVC

salma3

36 | 12

1.09 ГБ

В этой теме нет новых непрочитанных сообщений. Дело было в Пенькове [драма, мелодрама, 1957] DVDRip

salma3

103 | 11

1.45 ГБ

В этой теме нет новых непрочитанных сообщений. Рецепт Победы. Медицина в годы Великой Отечественной войны (Глеб Добровольский) [Документальный, история, военный, реконструкция, 2015] HDTVRip

Dracon

206 | 43

552.28 МБ

В этой теме нет новых непрочитанных сообщений. Мальчик на дельфине / Boy on a Dolphin [драма, мелодрама, приключения, 1957] BDRip 720p, Mvo

salma3

34 | 11

4.51 ГБ


Начать новую тему Ответить на тему  [ 1 сообщение ] 




Для Мосгорсуда, Роскомнадзора и рекламодателей:: mosgorsud-torrent[собачка]yandex.ru