Торрент файл
скачать торрент магнет ссылка Добавлен: 01 апр 2012, 21:46
Размер: 2.17 ГБ
Сидеров: 58
Личеров: 5
Автор

СообщениеДобавлено: 01 апр 2012, 21:46 

Не в сети
Супермодератор
Аватара пользователя
Дата регистрации:
11 апр 2010, 18:10
Спасибо: 5801 / 7
Сообщения: 56779
Копы в глубоком запасе / The Other Guys

Перевод: Профессиональный (полное дублирование), cубтитры: отсутствуют
Формат: HDRip-AVC, MKV, H.264, AC3
Страна: США
Режиссер: Адам МакКэй
Жанр: боевик, комедия, криминал
Продолжительность: 01:58:15
Год выпуска: 2010
В ролях: Уилл Феррелл, Марк Уолберг, Сэмюэл Л. Джексон, Ева Мендес, Дуэйн Джонсон, Ларнел Стовэлл, Джалил Джей Линч, Рой Т. Андерсон, Сара Чейз, Дэвид Гидеон, Джошуа Черч
Описание: Нью-Йоркские детективы Аллен Гэмбл и Терри Хойтз ведут полицейскую бухгалтерию. Гэмблу такая работа в радость, Хойтзу — наказание. Когда напарникам представится шанс выйти из тени — придти на помощь своим кумирам, детективам Дэнсону и Манцетти — станет ясно, что в бухгалтерию Гэмбла и Хойтза сослали не зря…

Видео: 1280х544 (2:40:1), 23.976 fps, AVC (х264) High@L4.1, ~ 2291 Kbps, 0.137 bit/pixel
Аудио: 48 kHz, AC3 Dolby Digital, 3/2 (L,C,R,l,r) + LFE ch, ~384 kbps
Релиз группы
Релиз от

Видео:
Идентификатор: 1
Формат: AVC
Формат/Информация: Advanced Video Codec
Профиль формата: High@L4.1
Параметр CABAC формата: Да
Параметр ReFrames формата: 8 кадров
Идентификатор кодека: V_MPEG4/ISO/AVC
Продолжительность: 1 ч. 56 м.
Битрейт: 2291 Кбит/сек
Ширина: 1280 пикс.
Высота: 544 пикс.
Соотношение сторон: 2,40:1
Соотношение сторон в оригинале: 2,40:1
Режим частоты кадров: Переменный
Частота кадров: 23,976 кадр/сек
Цветовое пространство: YUV
Подвыборка цветности: 4:2:0
Битовая глубина: 8 бит
Тип развёртки: Прогрессивная
Бит/(Пиксели*Кадры): 0.137
Размер потока: 1,82 Гбайт (84%)
Библиотека кодирования: x264 core 116 r2019M 9cc407d
Настройки программы: cabac=1 / ref=9 / deblock=1:-2:-2 / analyse=0x3:0x133 / me=umh / subme=9 / psy=1 / psy_rd=1.00:0.20 / mixed_ref=1 / me_range=32 / chroma_me=1 / trellis=1 / 8x8dct=1 / cqm=0 / deadzone=21,11 / fast_pskip=1 / chroma_qp_offset=-3 / threads=6 / sliced_threads=0 / nr=0 / decimate=1 / interlaced=0 / bluray_compat=0 / constrained_intra=0 / bframes=9 / b_pyramid=1 / b_adapt=2 / b_bias=0 / direct=3 / weightb=1 / open_gop=0 / weightp=2 / keyint=230 / keyint_min=23 / scenecut=40 / intra_refresh=0 / rc_lookahead=60 / rc=2pass / mbtree=1 / bitrate=2291 / ratetol=1.0 / qcomp=0.60 / qpmin=0 / qpmax=69 / qpstep=4 / cplxblur=20.0 / qblur=0.5 / ip_ratio=1.40 / aq=1:1.00

Аудио:
Идентификатор: 2
Формат: AC-3
Формат/Информация: Audio Coding 3
Расширение режима: CM (complete main)
Идентификатор кодека: A_AC3
Продолжительность: 1 ч. 56 м.
Вид битрейта: Постоянный
Битрейт: 384 Кбит/сек
Каналы: 6 каналов
Расположение каналов: Front: L C R, Side: L R, LFE
Частота: 48,0 КГц
Битовая глубина: 16 бит
Метод сжатия: С потерями
Размер потока: 319 Мбайт (14%)
Заголовок: 3/2+1
Язык: Russian






Поделиться:




реклама партнёра


Вернуться к началу
 Профиль Отправить личное сообщение  
 
   Похожие торренты   Автор   Торрент   Размер 
В этой теме нет новых непрочитанных сообщений. Голливудские копы / Hollywood Homicide [боевик, триллер, комедия, криминал, 2003] HDRip, Dub [КПК]

salma3

5 | 4

1003.72 МБ

В этой теме нет новых непрочитанных сообщений. Типа копы / Let's Be Cops [Боевик, Драма, Криминал, 2012] HDRip, dub [звук с TS]

Dracon

347 | 6

1.37 ГБ

В этой теме нет новых непрочитанных сообщений. Славные парни / The Nice Guys (Шейн Блэк / Shane Black) [2016, США, криминал, комедия, HDRip] Dub (iTunes)

Alfredovich

23 | 7

2.5 ГБ

В этой теме нет новых непрочитанных сообщений. Голливудские копы / Hollywood Homicide [боевик, триллер, комедия, криминал, 2003] BDRip 720p, Dub+Mvo+Sub

salma3

2 | 3

7.21 ГБ

В этой теме нет новых непрочитанных сообщений. Типа копы / Let's Be Cops [Комедия, 2014] HDRip, Dub [iTunes]

Dracon

1030 | 21

1.37 ГБ

В этой теме нет новых непрочитанных сообщений. Неправильные копы / Wrong cops [Комедия, Криминал, 2013] DVDRip, Avo

salma3

10 | 1

715.91 МБ

В этой теме нет новых непрочитанных сообщений. Неправильные копы / Wrong cops [Комедия, криминал, 2013] WEB-DL 720p, Mvo

Dracon

354 | 15

2.75 ГБ


Начать новую тему Ответить на тему  [ 1 сообщение ] 




Для Мосгорсуда, Роскомнадзора и рекламодателей:: mosgorsud-torrent[собачка]yandex.ru