Торрент файл
скачать торрент магнет ссылка Добавлен: 01 апр 2012, 21:46
Размер: 1.37 ГБ
Сидеров: 30
Личеров: 5
Автор

СообщениеДобавлено: 01 апр 2012, 21:46 

Не в сети
Супермодератор
Аватара пользователя
Дата регистрации:
11 апр 2010, 18:10
Спасибо: 5801 / 7
Сообщения: 56779
[b]Баки Ларсон: Рожденный быть звездой / Bucky Larson: Born to Be a Star[/b]


Перевод: Профессиональный (многоголосый, закадровый) [Лицензия]
Cубтитры: отсутствуют
Формат: DVDRip, AVI, XviD, AC-3
Страна: США
Режиссер: Том Брэди
Жанр: комедия
Продолжительность: 01:36:48
Год выпуска: 2011
В ролях: Ник Свардсон, Кристина Риччи, Дон Джонсон, Стивен Дорфф, Идо Муссари, Кевин Нилон, Эдвард Херрманн, Мириам Флинн, Марио Джойнер

Описание: Что может быть прекрасней, если сын решит пойти по стопам своих родителей. Вот и заурядный ботаник с севера штата Айова едет в Голливуд для того, чтобы продолжить семейное дело… стать звездой фильмов для взрослых.



Видео: 720x384 (4:2:0), 23,976 fps, XviD MPEG-4 Visual ~1630 kbps avg, 0.246 bit/pixel
Аудио: 48 kHz, Audio Coding 3, 6 ch, ~384.00 kbps avg



Общее
Полное имя: baki_larson_rozhdennyj_byt_zvezdoj_[tfile.ru].avi
Формат: AVI
Формат/Информация: Audio Video Interleave
Размер файла: 1,37 Гбайт
Продолжительность: 1 ч. 36 м.
Общий поток: 2023 Кбит/сек
Программа кодирования: VirtualDubMod 1.5.10.3 (build 2550/release)
Библиотека кодирования: VirtualDubMod build 2550/release

Видео
Идентификатор: 0
Формат: MPEG-4 Visual
Профиль формата: Advanced Simple@L5
Параметр BVOP формата: 2
Параметр QPel формата: Нет
Параметр GMC формата: Без точки перехода
Параметр матрицы формата: Выборочная
Режим смешивания: Сжатый битовый поток
Идентификатор кодека: XVID
Идентификатор кодека/Подсказка: XviD
Продолжительность: 1 ч. 36 м.
Битрейт: 1630 Кбит/сек
Ширина: 720 пикселей
Высота: 384 пикселя
Соотношение сторон: 1,875
Частота кадров: 23,976 кадра/сек
Цветовое пространство: YUV
Субдискретизация насыщенности: 4:2:0
Битовая глубина: 8 бит
Тип развёртки: Прогрессивная
Метод сжатия: С потерями
Бит/(Пиксели*Кадры): 0.246
Размер потока: 1,10 Гбайт (81%)
Библиотека кодирования: XviD 58

Аудио
Идентификатор: 1
Формат: AC-3
Формат/Информация: Audio Coding 3
Расширение режима: CM (complete main)
Идентификатор кодека: 2000
Продолжительность: 1 ч. 36 м.
Вид битрейта: Постоянный
Битрейт: 384 Кбит/сек
Каналы: 6 каналов
Расположение каналов: Front: L C R, Side: L R, LFE
Частота: 48,0 КГц
Битовая глубина: 16 бит
Метод сжатия: С потерями
Размер потока: 266 Мбайт (19%)
Выравнивание: Разделение по промежуткам
Продолжительность промежутка: 42мс. (1,00 видеокадр)
Время предзагрузки промежутка: 500мс.
















Поделиться:




реклама партнёра


Вернуться к началу
 Профиль Отправить личное сообщение  
 
   Похожие торренты   Автор   Торрент   Размер 
В этой теме нет новых непрочитанных сообщений. Рожденный побеждать / Born to Win [драма, комедия, криминал, 1971] SATRip, Dvo

salma3

2 | 3

1.55 ГБ

В этой теме нет новых непрочитанных сообщений. Рождённый для грусти / Born to Be Blue [драма, биография, музыка, 2015] HDRip, Mvo

salma3

100 | 2

699.67 МБ

В этой теме нет новых непрочитанных сообщений. Рожденный четвертого июля / Born on the Fourth of July [драма, военный, биография, 1989] BDRip 1080p, Dub

salma3

35 | 34

20.07 ГБ

В этой теме нет новых непрочитанных сообщений. Под несчастливой звездой / Star-Crossed / 1 сезон 1-13 серии из 13 [мелодрама, фантастика, 2014] WEB-DLRip, Mvo [BaibaKo]

salma3

1 | 3

7.11 ГБ

В этой теме нет новых непрочитанных сообщений. Рожденный вором / Zong heng si hai [боевик, триллер, комедия, криминал, 1991] BDRip 720p, Mvo

salma3

244 | 99

4.16 ГБ

В этой теме нет новых непрочитанных сообщений. Рожденный вором / Once A Thief / 1 сезон 1-22 серии из 22 [боевик, триллер, криминал, 1996] DVDRip, Mvo+Dvo [ДТВ/BaibaKo]

salma3

11 | 2

8.36 ГБ

В этой теме нет новых непрочитанных сообщений. The Plot In You – First Born [2011, Metalcore, Hardcore, MP3]

PriZraK

0 | 2

69.34 МБ


Начать новую тему Ответить на тему  [ 1 сообщение ] 




Для Мосгорсуда, Роскомнадзора и рекламодателей:: mosgorsud-torrent[собачка]yandex.ru