Торрент файл
скачать торрент магнет ссылка Добавлен: 01 апр 2012, 21:45
Размер: 1.37 ГБ
Сидеров: 227
Личеров: 7
Автор

СообщениеДобавлено: 01 апр 2012, 21:45 

Не в сети
Супермодератор
Аватара пользователя
Дата регистрации:
11 апр 2010, 18:10
Спасибо: 5802 / 7
Сообщения: 56779
[b]Убойное Рождество Гарольда и Кумара / A Very Harold & Kumar 3D Christmas[/b]


Перевод: Любительский (одноголосый) [звук с TS]
Cубтитры: отсутствуют
Формат: DVDRip, AVI, XviD, MP3
Страна: США
Режиссер: Тодд Штраус-Шульсон
Жанр: комедия
Продолжительность: 01:29:38
Год выпуска: 2011

В ролях: Пэттон Освальт, Изабелла Жельняк, Кэл Пенн, Дэнни Трехо, Остин Бикел, Инга Р. Уилсон, Джон Чо, Бобби Ли, Томас Леннон, Амир Блюменфилд, Паула Гарсес

Описание: Прошло шесть лет после приключения в проливе Гуантанамо. На этот раз закадычные друзья Гарольд Ли и Кумар Пател сорвали праздник, случайно спалив дотла призовую рождественскую ель тестя Гарольда.



Видео: 720x304 (2,35:1), 23.976 fps, XviD MPEG-4 Visual ~1786 kbps avg, 0.340 bit/pixel
Аудио#1: Русский: 44.100 kHz, MPEG Layer 3, 2 ch, ~160.00 kbps avg [Любительский (одноголосый)]
Аудио#2: Английский: 48.000 kHz, Audio Coding 3, 6 ch, ~224.00 kbps avg [Оригинал]



Общее
Полное имя: yboinoe_rojdestvo.avi
Формат: AVI
Формат/Информация: Audio Video Interleave
Размер файла: 1,37 Гбайт
Продолжительность: 1 ч. 29 м.
Общий поток: 2184 Кбит/сек
Программа кодирования: VirtualDubMod 1.5.10.2 (build 2540/release)
Библиотека кодирования: VirtualDubMod build 2540/release

Видео
Идентификатор: 0
Формат: MPEG-4 Visual
Профиль формата: Advanced Simple@L5
Параметр BVOP формата: 1
Параметр QPel формата: Нет
Параметр GMC формата: Без точки перехода
Параметр матрицы формата: Default (H.263)
Идентификатор кодека: XVID
Идентификатор кодека/Подсказка: XviD
Продолжительность: 1 ч. 29 м.
Битрейт: 1786 Кбит/сек
Ширина: 720 пикселей
Высота: 304 пикселя
Соотношение сторон: 2,35:1
Частота кадров: 23,976 кадра/сек
Цветовое пространство: YUV
Субдискретизация насыщенности: 4:2:0
Битовая глубина: 8 бит
Тип развёртки: Прогрессивная
Метод сжатия: С потерями
Бит/(Пиксели*Кадры): 0.340
Размер потока: 1,12 Гбайт (82%)
Библиотека кодирования: XviD 1.2.1 (UTC 2008-12-04)

Аудио #1
Идентификатор: 1
Формат: MPEG Audio
Версия формата: Version 1
Профиль формата: Layer 3
Идентификатор кодека: 55
Идентификатор кодека/Подсказка: MP3
Продолжительность: 1 ч. 29 м.
Вид битрейта: Постоянный
Битрейт: 160 Кбит/сек
Каналы: 2 канала
Частота: 44,1 КГц
Метод сжатия: С потерями
Размер потока: 103 Мбайт (7%)
Выравнивание: Разделение по промежуткам
Продолжительность промежутка: 42мс. (1,00 видеокадр)
Время предзагрузки промежутка: 500мс.

Аудио #2
Идентификатор: 2
Формат: AC-3
Формат/Информация: Audio Coding 3
Расширение режима: CM (complete main)
Идентификатор кодека: 2000
Продолжительность: 1 ч. 29 м.
Вид битрейта: Постоянный
Битрейт: 224 Кбит/сек
Каналы: 6 каналов
Расположение каналов: Front: L C R, Side: L R, LFE
Частота: 48,0 КГц
Битовая глубина: 16 бит
Метод сжатия: С потерями
Размер потока: 144 Мбайт (10%)
Выравнивание: Разделение по промежуткам
Продолжительность промежутка: 42мс. (1,00 видеокадр)
Время предзагрузки промежутка: 500мс.
















Поделиться:




реклама партнёра


Вернуться к началу
 Профиль Отправить личное сообщение  
 
   Похожие торренты   Автор   Торрент   Размер 
В этой теме нет новых непрочитанных сообщений. Последние девушки / The Final Girls (Тодд Штраус-Шульсон) [Ужасы, комедия, 2015] HDRip, Mvo [iTunes]

Dracon

2611 | 45

1.45 ГБ

В этой теме нет новых непрочитанных сообщений. Последние девушки / The Final Girls (Тодд Штраус-Шульсон) [2015, ужасы, комедия, BDRip-AVC | Лицензия] mvo

Dracon

162 | 8

743.63 МБ

В этой теме нет новых непрочитанных сообщений. Последние девушки / The Final Girls (Тодд Штраус-Шульсон) [2015, ужасы, комедия, BDRip-AVC | Лицензия] mvo

Dracon

686 | 43

1.46 ГБ

В этой теме нет новых непрочитанных сообщений. Последние девушки / The Final Girls (Тодд Штраус-Шульсон) [2015, ужасы, комедия, BDRip-AVC | Лицензия]

Dracon

148 | 6

2.18 ГБ

В этой теме нет новых непрочитанных сообщений. Последние девушки / The Final Girls (Тодд Штраус-Шульсон) [Ужасы, комедия, 2015] BDRip 1080p, Mvo+Sub [Лицензия]

Dracon

277 | 60

12.24 ГБ

В этой теме нет новых непрочитанных сообщений. Последние девушки / The Final Girls (Тодд Штраус-Шульсон) [Ужасы, комедия, 2015] BDRip 720p, Mvo+Sub [Лицензия]

Dracon

458 | 45

4.02 ГБ

В этой теме нет новых непрочитанных сообщений. Последние девушки / The Final Girls (Тодд Штраус-Шульсон) [Ужасы, комедия, 2015] BDRip 720p, Mvo [iTunes]

Dracon

1001 | 60

4.61 ГБ


Начать новую тему Ответить на тему  [ 1 сообщение ] 




Для Мосгорсуда, Роскомнадзора и рекламодателей:: mosgorsud-torrent[собачка]yandex.ru