Торрент файл
скачать торрент магнет ссылка Добавлен: 01 апр 2012, 21:42
Размер: 2.48 ГБ
Сидеров: 192
Личеров: 18
Автор

СообщениеДобавлено: 01 апр 2012, 21:42 

Не в сети
Супермодератор
Аватара пользователя
Дата регистрации:
11 апр 2010, 18:10
Спасибо: 5802 / 7
Сообщения: 56779
Угадай, кто? / Guess Who

Перевод: Профессиональный (полное дублирование)
Субтитры: Отсутствуют
Формат: HDTVRip, MKV, H.264, AC3
Страна: США
Режиссер: Кевин Родни Салливан
Жанр: комедия, мелодрама
Продолжительность: 01:45:05
Год выпaуска: 2005
В ролях: Берни Мак, Эштон Катчер, Зои Салдана, Джудит Скотт, Хэл Уильямс, Келли Стюарт, Роберт Кертис-Браун, РонРико Ли, Паула Ньюсом, Фил Ривз
Описание: Перси Джонса очень заботит будущее его дочери Терезы. Еще даже не познакомившись с ее новым бойфрендом Саймоном Грином, он наводит о нем справки. По документам выходит, что Саймон намного лучше тех неудачников, с которыми Тереза встречалась раньше. У него прекрасная работа, отличные капиталовложения и многообещающее будущее.
Однако в исчерпывающей информации о Саймоне есть одно упущение: там не сообщается о том, что он-белый. В принципе в этом нет ничего криминального, если, конечно же, Саймон не намерен жениться на Терезе. А он как раз намерен…


Видео: 1280x720 (16:9), 23,976 fps, MPEG4 AVC (х264), High@L4.1 ~2600 kbps avg, 0.118 bit/pixel
Аудио#1:Русский: 48 kHz,AC-3, 6 ch, ~384.00 kbps avg [Профессиональный (полное дублирование)]
Аудио#2:Украинский: 48 kHz,AC-3, 6 ch, ~384.00 kbps avg [Внешним файлом:Профессиональный (многоголосый, закадровый)]


Автор РИПа:
Общее
Уникальный идентификатор : 227810655788405738644387787770697454074 (0xAB62BC824EC8660FBF0E05E0B67991FA)
Полное имя : f:\Downloads\gues_who_[tfile.ru]\gues_who_[tfile.ru].mkv
Формат : Matroska
Версия формата : Version 2
Размер файла : 2,20 Гбайт
Продолжительность : 1 ч. 45 м.
Общий поток : 2997 Кбит/сек
Дата кодирования : UTC 2012-01-26 06:01:31
Программа кодирования : mkvmerge v4.6.0 ('Still Crazy After All These Years') сборка от Mar 10 2011 02:50:32
Библиотека кодирования : libebml v1.2.0 + libmatroska v1.1.0

Видео
Идентификатор : 1
Формат : AVC
Формат/Информация : Advanced Video Codec
Профиль формата : High@L4.1
Параметр CABAC формата : Да
Параметр ReFrames формата : 3 кадра
Режим смешивания : Header stripping
Идентификатор кодека : V_MPEG4/ISO/AVC
Продолжительность : 1 ч. 45 м.
Битрейт : 2600 Кбит/сек
Ширина : 1280 пикселей
Высота : 720 пикселей
Соотношение сторон : 16:9
Режим частоты кадров : Переменный
Частота кадров : 23,976 кадра/сек
Цветовое пространство : YUV
Субдискретизация насыщенности : 4:2:0
Битовая глубина : 8 бит
Тип развёртки : Прогрессивная
Бит/(Пиксели*Кадры) : 0.118
Размер потока : 1,87 Гбайт (85%)
Библиотека кодирования : x264 core 116 r2019M 9cc407d
Настройки программы : cabac=1 / ref=3 / deblock=1:-1:-1 / analyse=0x3:0x133 / me=hex / subme=7 / psy=1 / psy_rd=1.00:0.15 / mixed_ref=1 / me_range=16 / chroma_me=1 / trellis=1 / 8x8dct=1 / cqm=0 / deadzone=21,11 / fast_pskip=1 / chroma_qp_offset=-3 / threads=8 / sliced_threads=0 / nr=0 / decimate=1 / interlaced=0 / bluray_compat=0 / constrained_intra=0 / bframes=3 / b_pyramid=1 / b_adapt=2 / b_bias=0 / direct=3 / weightb=1 / open_gop=0 / weightp=2 / keyint=230 / keyint_min=23 / scenecut=40 / intra_refresh=0 / rc_lookahead=40 / rc=abr / mbtree=1 / bitrate=2600 / ratetol=1.0 / qcomp=0.60 / qpmin=10 / qpmax=51 / qpstep=4 / ip_ratio=1.40 / aq=1:1.00
Язык : English
Default : Да
Forced : Нет

Аудио
Идентификатор : 2
Формат : AC-3
Формат/Информация : Audio Coding 3
Расширение режима : CM (complete main)
Режим смешивания : Header stripping
Идентификатор кодека : A_AC3
Продолжительность : 1 ч. 45 м.
Вид битрейта : Постоянный
Битрейт : 384 Кбит/сек
Каналы : 6 каналов
Расположение каналов : Front: L C R, Side: L R, LFE
Частота : 48,0 КГц
Битовая глубина : 16 бит
Метод сжатия : С потерями
Размер потока : 289 Мбайт (13%)
Заголовок : DUB
Язык : Russian
Default : Да
Forced : Нет
















Поделиться:




реклама партнёра


Вернуться к началу
 Профиль Отправить личное сообщение  
 
   Похожие торренты   Автор   Торрент   Размер 
В этой теме нет новых непрочитанных сообщений. Джейн хочет бойфренда / Jane Wants a Boyfriend (Уилльям Салливан / William Sullivan) [2015г., драма, мелодрама, комедия, WEB-DLRip] mvo

Alfredovich

96 | 2

1.37 ГБ

В этой теме нет новых непрочитанных сообщений. Колдунья / Bewitched [Фэнтези, Мелодрама, Комедия, 2005] HDTVRip, Dub

salma3

2 | 2

1.45 ГБ

В этой теме нет новых непрочитанных сообщений. Азбука смерти 2 / ABCs of Death 2 (Родни Ашер, Джулиан Бэррэтт ... (26)) [Комедия, Ужасы, 2014] HDRip, dvo

Dracon

0 | 2

2.06 ГБ

В этой теме нет новых непрочитанных сообщений. Дневники вампира / The Vampire Diaries [07х01-05 из 22] (Кевин Брэй, Дж. Миллер Тобин, Маркос Сига) [2015, Драма, Мелодрама, Ужасы, Фэнтези, HDTVRip | ColdFilm]

Nickolas3435

146 | 495

1.96 ГБ

В этой теме нет новых непрочитанных сообщений. The Guess Who - American Woman [2000, Classic Rock, Blues Rock, MP3]

PriZraK

0 | 2

103.02 МБ

В этой теме нет новых непрочитанных сообщений. Разная ложь / Separate Lies [триллер, драма, мелодрама, 2005] HDTVRip, Mvo

salma3

47 | 7

1.28 ГБ

В этой теме нет новых непрочитанных сообщений. Бей и кричи / Kicking and Screaming [Комедия, семейный, спорт, 2005] HDTVRip, Mvo

salma3

35 | 5

1.36 ГБ


Начать новую тему Ответить на тему  [ 1 сообщение ] 




Для Мосгорсуда, Роскомнадзора и рекламодателей:: mosgorsud-torrent[собачка]yandex.ru