Торрент файл
скачать торрент магнет ссылка Добавлен: 01 апр 2012, 21:39
Размер: 2.49 ГБ
Сидеров: 73
Личеров: 11
Автор

СообщениеДобавлено: 01 апр 2012, 21:39 

Не в сети
Супермодератор
Аватара пользователя
Дата регистрации:
11 апр 2010, 18:10
Спасибо: 5799 / 7
Сообщения: 56779
Война супругов Роуз / The War of the Roses

Перевод: Профессиональный (двухголосый, закадровый)
Субтитры: Русские, Английские (полные, отключаемые)
Формат: HDTVRip, MKV, H.264, AC3
Страна: США
Режиссер: Дэнни ДеВито
Жанр: комедия
Продолжительность: 01:56:30
Год выпуска: 1989
В ролях: Майкл Дуглас, Кэтлин Тёрнер, Дэнни ДеВито, Марианне Зэгебрехт, Шон Эстин, Хэзер Фэйрфилд, Г.Д. Спрэдлин, Питер Донат, Дэн Кастелланета, Глория Кромвелл
Описание: После семнадцати лет совместной жизни Оливер и Барбара Роз решают развестись. Дети выросли, а Барбара-натура деятельная и предприимчивая. Она устала сидеть дома и решает направить ключом бьющую энергию в деловое русло. Но ее мужу, респектабельному чиновнику, это намерение жены совсем не по душе.
Только Барбаре нет до мужа никакого дела. Она делит дом на две половины. Теперь границы обозначены. Пора переходить к военным действиям. По правде сказать, кошка с собакой жили бы лучше.


Видео: 1280x692 (1,85:1), 23,976 fps, MPEG4 AVC (х264), High@L4.1 ~2500 kbps avg, 0.118 bit/pixel
Аудио#1:Русский: 48 kHz,AC-3, 2 ch, ~192.00 kbps avg [Профессиональный (двухголосый, закадровый, лицензия "20 CENTURY FOX")]
Аудио#2:Русский: 48 kHz,AC-3, 2 ch, ~192.00 kbps avg [Внешним файлом: Авторский (одноголосый, Андрей Гаврилов)]
Аудио#3:Английский: 48 kHz,AC-3, 2 ch, ~192.00 kbps avg [Внешним файлом: Оригинал]


Автор РИПа:
Общее
Уникальный идентификатор : 194228524081886115684868156774896722616 (0x921F0D953B4D0B5ABB99F416902162B
Полное имя : f:\Downloads\the_war_of_the_roses_[tfile.ru]\the_war_of_the_roses_[tfile.ru].mkv
Формат : Matroska
Версия формата : Version 2
Размер файла : 2,17 Гбайт
Продолжительность : 1 ч. 56 м.
Общий поток : 2668 Кбит/сек
Название фильма : The War of the Roses (1989)
Дата кодирования : UTC 2012-02-09 18:54:30
Программа кодирования : mkvmerge v4.6.0 ('Still Crazy After All These Years') сборка от Mar 10 2011 02:50:32
Библиотека кодирования : libebml v1.2.0 + libmatroska v1.1.0

Видео
Идентификатор : 1
Формат : AVC
Формат/Информация : Advanced Video Codec
Профиль формата : High@L4.1
Параметр CABAC формата : Да
Параметр ReFrames формата : 3 кадра
Режим смешивания : Header stripping
Идентификатор кодека : V_MPEG4/ISO/AVC
Продолжительность : 1 ч. 56 м.
Битрейт : 2500 Кбит/сек
Ширина : 1280 пикселей
Высота : 692 пикселя
Соотношение сторон : 1,850
Режим частоты кадров : Переменный
Частота кадров : 23,976 кадра/сек
Цветовое пространство : YUV
Субдискретизация насыщенности : 4:2:0
Битовая глубина : 8 бит
Тип развёртки : Прогрессивная
Бит/(Пиксели*Кадры) : 0.118
Размер потока : 1,97 Гбайт (91%)
Библиотека кодирования : x264 core 116 r2019M 9cc407d
Настройки программы : cabac=1 / ref=3 / deblock=1:-1:-1 / analyse=0x3:0x133 / me=hex / subme=7 / psy=1 / psy_rd=1.00:0.15 / mixed_ref=1 / me_range=16 / chroma_me=1 / trellis=1 / 8x8dct=1 / cqm=0 / deadzone=21,11 / fast_pskip=1 / chroma_qp_offset=-3 / threads=8 / sliced_threads=0 / nr=0 / decimate=1 / interlaced=0 / bluray_compat=0 / constrained_intra=0 / bframes=3 / b_pyramid=1 / b_adapt=2 / b_bias=0 / direct=3 / weightb=1 / open_gop=0 / weightp=2 / keyint=230 / keyint_min=23 / scenecut=40 / intra_refresh=0 / rc_lookahead=40 / rc=abr / mbtree=1 / bitrate=2500 / ratetol=1.0 / qcomp=0.60 / qpmin=10 / qpmax=51 / qpstep=4 / ip_ratio=1.40 / aq=1:1.00
Язык : English
Default : Да
Forced : Нет

Аудио
Идентификатор : 2
Формат : AC-3
Формат/Информация : Audio Coding 3
Расширение режима : CM (complete main)
Режим смешивания : Header stripping
Идентификатор кодека : A_AC3
Продолжительность : 1 ч. 56 м.
Вид битрейта : Постоянный
Битрейт : 192 Кбит/сек
Каналы : 2 канала
Расположение каналов : Front: L R
Частота : 48,0 КГц
Битовая глубина : 16 бит
Метод сжатия : С потерями
Размер потока : 160 Мбайт (7%)
Заголовок : DVO
Язык : Russian
Default : Да
Forced : Нет

Текст #1
Идентификатор : 3
Формат : ASS
Идентификатор кодека : S_TEXT/ASS
Идентификатор кодека/Информация : Advanced Sub Station Alpha
Метод сжатия : Без потерь
Язык : Russian
Default : Да
Forced : Нет

Текст #2
Идентификатор : 4
Формат : UTF-8
Идентификатор кодека : S_TEXT/UTF8
Идентификатор кодека/Информация : UTF-8 Plain Text
Язык : English
Default : Нет
Forced : Нет















Поделиться:




реклама партнёра


Вернуться к началу
 Профиль Отправить личное сообщение  
 
   Похожие торренты   Автор   Торрент   Размер 
В этой теме нет новых непрочитанных сообщений. Guns N’ Roses - Roses N’ Guns [2013, Hard Rock, Glam Rock, Heavy Metal, MP3]

PriZraK

9 | 1

114.58 МБ

В этой теме нет новых непрочитанных сообщений. ICON & The Black Roses - ICON & The Black Roses [2004, Gothic Metal, MP3]

PriZraK

0 | 1

118.31 МБ

В этой теме нет новых непрочитанных сообщений. Секс супругов [2014 г., Amateur, CamRip]

Dievas

2 | 6

70.55 МБ

В этой теме нет новых непрочитанных сообщений. Розы мертвы / Roses Are Dead / Acting on Impulse [Детектив, триллер, комедия, 1993] DVD5, Mvo

salma3

9 | 2

3.71 ГБ

В этой теме нет новых непрочитанных сообщений. Хейвен / Haven [05x01] (Т.У. Пикок, Ли Роуз, Тим Соутэм, Фред Гербер) [2014, Фэнтези, триллер, драма, криминал, детектив, HDTVRip | Kerob]

Nickolas3435

54 | 4

518.91 МБ

В этой теме нет новых непрочитанных сообщений. Волшебник / The Wizard [драма, комедия, приключения, семейный, 1989] HDTVRip 720p, Dvo

salma3

13 | 5

3.17 ГБ

В этой теме нет новых непрочитанных сообщений. Маленькая колдунья / Teen Witch [фэнтези, мелодрама, комедия, 1989] HDTVRip, Mvo

salma3

0 | 2

1.45 ГБ


Начать новую тему Ответить на тему  [ 1 сообщение ] 




Для Мосгорсуда, Роскомнадзора и рекламодателей:: mosgorsud-torrent[собачка]yandex.ru