Торрент файл
скачать торрент магнет ссылка Добавлен: 01 апр 2012, 21:38
Размер: 2.1 ГБ
Сидеров: 139
Личеров: 6
Автор

СообщениеДобавлено: 01 апр 2012, 21:38 

Не в сети
Супермодератор
Аватара пользователя
Дата регистрации:
11 апр 2010, 18:10
Спасибо: 5801 / 7
Сообщения: 56779
Простые сложности / It's Complicated


Перевод: Профессиональный (полное дублирование), cубтитры: отсутствуют
Формат: HDRip-AVC, MKV, H.264, AC3
Страна: США
Режиссер: Нэнси Мейерс
Жанр: мелодрама, комедия
Продолжительность: 02:00:16
Год выпуска: 2009

В ролях: Мэрил Стрип, Стив Мартин, Алек Болдуин, Джон Красински, Лэйк Белл, Мэри Кэй Плэйс, Рита Уилсон, Александра Уэнтуорт, Хантер Пэрриш, Зои Кэзан

Описание: Владея процветающей пекарней, имея новый роман и развод за спиной, Джейн считает свою жизнь предсказуемой… до тех пор пока ее бывший супруг Джейк решает несмотря ни на что вернуть ее.

[/field]

Видео: 1280 x 696 (1.85.1), 23.976 fps, AVC, х264 High@L4.1, ~ 2181 Kbps, 0.102 bit/pixel
Аудио: 48 kHz, AC3 Dolby Digital, 3/2 (L,C,R,l,r) + LFE ch, ~384 kbps


Рип: jeenart

General
Unique ID: 235191869594174592101257768434230775508 (0xB0F04E72610124BDB19018A14F164ED4)
Complete name: F:\Мои релизы\Все релизы 10\prostye_slozhnosti_[tfile.ru].mkv
Format: Matroska
File size: 2.10 GiB
Duration: 2h 0mn
Overall bit rate: 2 502 Kbps
Encoded date: UTC 2012-02-12 18:19:32
Writing application: mkvmerge v4.6.0 ('Still Crazy After All These Years') сборка от Apr1 2011 21:01:49
Writing library: libebml v1.2.0 + libmatroska v1.1.0

Video
ID: 1
Format: AVC
Format/Info: Advanced Video Codec
Format profile: High@L4.1
Format settings, CABAC: Yes
Format settings, ReFrames: 4 frames
Format settings, GOP: M=4, N=32
Codec ID: V_MPEG4/ISO/AVC
Duration: 2h 0mn
Bit rate: 2 181 Kbps
Width: 1 280 pixels
Height: 696 pixels
Display aspect ratio: 16:9
Frame rate: 23.976 fps
Color space: YUV
Chroma subsampling: 4:2:0
Bit depth: 8 bits
Scan type: Progressive
Bits/(Pixel*Frame): 0.102
Stream size: 1.79 GiB (85%)
Writing library: x264 core 115 r1937 aa21558
Encoding settings: cabac=1 / ref=3 / deblock=1:-1:-1 / analyse=0x3:0x113 / me=hex / subme=7 / psy=1 / psy_rd=1.00:0.10 / mixed_ref=1 / me_range=16 / chroma_me=1 / trellis=1 / 8x8dct=1 / cqm=0 / deadzone=21,11 / fast_pskip=1 / chroma_qp_offset=-3 / threads=6 / sliced_threads=0 / nr=0 / decimate=1 / interlaced=0 / bluray_compat=0 / constrained_intra=0 / bframes=3 / b_pyramid=2 / b_adapt=1 / b_bias=0 / direct=3 / weightb=1 / open_gop=0 / weightp=2 / keyint=250 / keyint_min=23 / scenecut=40 / intra_refresh=0 / rc_lookahead=40 / rc=2pass / mbtree=1 / bitrate=2181 / ratetol=1.0 / qcomp=0.60 / qpmin=0 / qpmax=69 / qpstep=4 / cplxblur=20.0 / qblur=0.5 / ip_ratio=1.40 / aq=1:1.00

Audio
ID: 2
Format: AC-3
Format/Info: Audio Coding 3
Mode extension: CM (complete main)
Codec ID: A_AC3
Duration: 2h 0mn
Bit rate mode: Constant
Bit rate: 320 Kbps
Channel(s): 6 channels
Channel positions: Front: L C R, Side: L R, LFE
Sampling rate: 48.0 KHz
Bit depth: 16 bits
Compression mode: Lossy
Stream size: 275 MiB (13%)

















Поделиться:




реклама партнёра


Вернуться к началу
 Профиль Отправить личное сообщение  
 
   Похожие торренты   Автор   Торрент   Размер 
В этой теме нет новых непрочитанных сообщений. Простые сложности / It's Complicated [комедия, мелодрама, 2009] HDRip, Dub [Лицензия]

salma3

25 | 6

1.37 ГБ

В этой теме нет новых непрочитанных сообщений. Стажер / The Intern (Нэнси Майерс) [2015, Мелодрама, комедия , WEB-DLRip-AVC 1080p] [DD5.1] [Dub Rus , Eng]+[Sub Rus , Eng]

Враг Нароода

14 | 1

5.35 ГБ

В этой теме нет новых непрочитанных сообщений. Простые люди / Simple Men [драма, мелодрама, криминал, 1992] BDRip 1080p, Mvo

salma3

11 | 6

7.15 ГБ

В этой теме нет новых непрочитанных сообщений. Стажер / The Intern (Нэнси Майерс) [Комедия, 2015] WEB-DL 720p, dub [iTunes]

Dracon

161 | 1

3.22 ГБ

В этой теме нет новых непрочитанных сообщений. Стажер / The Intern (Нэнси Майерс) [Комедия, 2015] BDRip, Dub [Лицензия]

Dracon

851 | 64

1.46 ГБ

В этой теме нет новых непрочитанных сообщений. Стажер / The Intern (Нэнси Майерс) [Комедия, 2015] BDRip-AVC, Dub+Sub [Лицензия]

Dracon

1471 | 148

2.9 ГБ

В этой теме нет новых непрочитанных сообщений. Стажер / The Intern (Нэнси Майерс) [Комедия, 2015] BDRip 1080p, Dub+Sub [Лицензия]

Dracon

711 | 132

14.55 ГБ


Начать новую тему Ответить на тему  [ 1 сообщение ] 




Для Мосгорсуда, Роскомнадзора и рекламодателей:: mosgorsud-torrent[собачка]yandex.ru