Торрент файл
скачать торрент магнет ссылка Добавлен: 01 апр 2012, 21:36
Размер: 1.64 ГБ
Сидеров: 204
Личеров: 11
Автор

СообщениеДобавлено: 01 апр 2012, 21:36 

Не в сети
Супермодератор
Аватара пользователя
Дата регистрации:
11 апр 2010, 18:10
Спасибо: 5960 / 7
Сообщения: 56765
Как заняться любовью с женщиной / How to Make Love to a Woman

Перевод: Профессиональный (многоголосый, закадровый), cубтитры: русские, английские (отключаемые)
Формат: HDRip-AVC, MKV, H.264, AC3
Страна: США
Режиссер: Скотт Калвер
Жанр: комедия
Продолжительность: 01:31:48
Год выпуска: 2010

В ролях: Джош Мейерс, Кристен Риттер, Юджин Бирд, Иен Сомерхолдер, Линдси Ричардс, Катрин Рейтман, Нора Киркпатрик, Кен Жонг, Джеймс Кайсон Ли, Айк Баринхолц

Описание: Энди и Лоурен встречаются уже не первый день, а юноша не имеет ни малейшего представления о том, как удовлетворить свою подружку. Он обращается за ценным советом к друзьям-музыкантам, к известной порноактрисе и еще ко многим знакомым. У каждого есть свой «фирменный рецепт» сексуального успеха! Но сможет ли Энди вовремя узнать — чего же по-настоящему хочет женщина? Ведь на горизонте появляется прекрасно осведомленный в приемах обольщения женщин красавчик Даниэль



Видео: 1280x720 (16:9), 23.976 fps, AVC (x264) High@L4.1, ~1951 kbps avg, 0.088 bit/pixel
Аудио #1:Русский: 48 kHz, AC3 Dolby Digital, 3/2 (L,C,R,l,r) + LFE ch, ~448 kbps avg [Профессиональный (многоголосый, закадровый)]
Аудио #2:Английский: 48 kHz, AC3 Dolby Digital, 2/0 (L, R) ch, ~128 kbps avg [Оригинал]

Общее
Уникальный идентификатор: 209428256500382902383594036580400954125 (0x9D8E6A40072B5444AAC94BA892BEFB0D)
Полное имя: D:\Перенос\Загрузон\how_to_make_love_to_a_woman_[tfile.ru].mkv
Формат: Matroska
Версия формата: Version 1
Размер файла: 1,64 Гбайт
Продолжительность: 1 ч. 31 м.
Общий поток: 2578 Кбит/сек
Название фильма: Как заняться любовью с женщиной / How to Make Love to a Woman (2010) HDRip-AVC
Дата кодирования: UTC 2011-08-03 16:32:57
Программа кодирования: mkvmerge v2.3.0 ('Freak U') built on Sep8 2008 18:32:16
Библиотека кодирования: libebml v0.7.7 + libmatroska v0.8.1

Видео
Идентификатор: 1
Формат: AVC
Формат/Информация: Advanced Video Codec
Профиль формата: High@L4.1
Параметр CABAC формата: Да
Параметр ReFrames формата: 3 кадра
Идентификатор кодека: V_MPEG4/ISO/AVC
Продолжительность: 1 ч. 31 м.
Битрейт: 1951 Кбит/сек
Ширина: 1280 пикселей
Высота: 720 пикселей
Соотношение сторон: 16:9
Частота кадров: 23,976 кадра/сек
Цветовое пространство: YUV
Субдискретизация насыщенности: 4:2:0
Битовая глубина: 8 бит
Тип развёртки: Прогрессивная
Бит/(Пиксели*Кадры): 0.088
Размер потока: 1,24 Гбайт (76%)
Заголовок:
Язык: English
Default: Да
Forced: Нет

Аудио #1
Идентификатор: 2
Формат: AC-3
Формат/Информация: Audio Coding 3
Расширение режима: CM (complete main)
Идентификатор кодека: A_AC3
Продолжительность: 1 ч. 31 м.
Вид битрейта: Постоянный
Битрейт: 448 Кбит/сек
Каналы: 6 каналов
Расположение каналов: Front: L C R, Side: L R, LFE
Частота: 48,0 КГц
Битовая глубина: 16 бит
Метод сжатия: С потерями
Размер потока: 293 Мбайт (17%)
Заголовок:
Язык: Russian
Default: Да
Forced: Нет

Аудио #2
Идентификатор: 3
Формат: AC-3
Формат/Информация: Audio Coding 3
Расширение режима: CM (complete main)
Идентификатор кодека: A_AC3
Продолжительность: 1 ч. 31 м.
Вид битрейта: Постоянный
Битрейт: 128 Кбит/сек
Каналы: 2 канала
Расположение каналов: Front: L R
Частота: 48,0 КГц
Битовая глубина: 16 бит
Метод сжатия: С потерями
Размер потока: 83,6 Мбайт (5%)
Заголовок:
Язык: English
Default: Нет
Forced: Нет

Текст #1
Идентификатор: 4
Формат: UTF-8
Идентификатор кодека: S_TEXT/UTF8
Идентификатор кодека/Информация: UTF-8 Plain Text
Заголовок:
Язык: English
Default: Да
Forced: Нет

Текст #2
Идентификатор: 5
Формат: UTF-8
Идентификатор кодека: S_TEXT/UTF8
Идентификатор кодека/Информация: UTF-8 Plain Text
Заголовок:
Язык: Russian
Default: Нет
Forced: Нет

Текст #3
Идентификатор: 6
Формат: UTF-8
Идентификатор кодека: S_TEXT/UTF8
Идентификатор кодека/Информация: UTF-8 Plain Text
Заголовок:
Язык: Russian
Default: Нет
Forced: Нет

Текст #4
Идентификатор: 7
Формат: UTF-8
Идентификатор кодека: S_TEXT/UTF8
Идентификатор кодека/Информация: UTF-8 Plain Text
Заголовок:
Язык: English
Default: Нет
Forced: Нет

Текст #5
Идентификатор: 8
Формат: UTF-8
Идентификатор кодека: S_TEXT/UTF8
Идентификатор кодека/Информация: UTF-8 Plain Text
Заголовок:
Язык: English
Default: Нет
Forced: Нет








Поделиться:




реклама партнёра


Вернуться к началу
 Профиль Отправить личное сообщение  
 
   Похожие торренты   Автор   Торрент   Размер 
В этой теме нет новых непрочитанных сообщений. Как заниматься любовью по-английски / How to Make Love Like an Englishman (Том Вон) [Мелодрама, комедия, 2014] WEB-DL 720p, Dub

Dracon

38 | 1

3.2 ГБ

В этой теме нет новых непрочитанных сообщений. Как заниматься любовью по-английски / How to Make Love Like an Englishman (Том Вон) [Мелодрама, комедия, 2014] WEB-DL 720p [Lucky Strike]

Dracon

136 | 1

3.15 ГБ

В этой теме нет новых непрочитанных сообщений. С любовью, Рози / Love, Rosie С любовью, Рози / Love, Rosie (Кристиан Диттер) [мелодрама, комедия, 2015] HDRip, avo

Dracon

4 | 2

1.37 ГБ

В этой теме нет новых непрочитанных сообщений. С любовью, Рози / Love, Rosie (Кристиан Диттер) [мелодрама, комедия, 2015] HDRip, dub [Чистый звук]

Dracon

7340 | 221

1.37 ГБ

В этой теме нет новых непрочитанных сообщений. С любовью, Рози / Love, Rosie (Кристиан Диттер) [мелодрама, комедия, 2015] WEB-DLRip, dub [звук TS]

Dracon

4 | 5

1.46 ГБ

В этой теме нет новых непрочитанных сообщений. С любовью, Рози / Love, Rosie (Кристиан Диттер) [мелодрама, комедия, 2015] WEB-DLRip 720p, dub [звук TS]

Dracon

4 | 4

3.46 ГБ

В этой теме нет новых непрочитанных сообщений. С любовью, Рози / Love, Rosie (Кристиан Диттер) [мелодрама, комедия, 2015] BDRip 720p, dub [Чистый звук]

Dracon

134 | 89

4.65 ГБ


Начать новую тему Ответить на тему  [ 1 сообщение ] 




Для Мосгорсуда, Роскомнадзора и рекламодателей:: mosgorsud-torrent[собачка]yandex.ru