Торрент файл
скачать торрент магнет ссылка Добавлен: 01 апр 2012, 21:35
Размер: 1.51 ГБ
Сидеров: 147
Личеров: 7
Автор

СообщениеДобавлено: 01 апр 2012, 21:35 

Не в сети
Супермодератор
Аватара пользователя
Дата регистрации:
11 апр 2010, 18:10
Спасибо: 5798 / 7
Сообщения: 56779
[b]Будь, что будет / Whatever Works[/b]


Перевод: Профессиональный (многоголосый закадровый)
Субтитры: отсутствуют
Формат: HDRip-AVC, MKV, H.264, AC3

Страна: США, Франция

Режиссер: Вуди Аллен
Жанр: комедия, мелодрама
Продолжительность: 01:31:40
Год выпуска: 2009

В ролях: Ларри Дэвид, Адам Брукс, Лайл Кэйнаус, Майкл МакКин, Клиффорд Ли Диксон, Йолонда Росс, Кэролин, МакКормик, Саманта Би, Конлет Хилл, Марсия ДеБонис.

Описание: Эксцентричный обитатель Нью-Йорка Борис знакомится с наивной хорошенькой, но совершенно невоспитанной девушкой по имени Мелодии, приехавшей покорять Нью-Йорк из провинции. Ей очень подходит его квартира, а ему — она сама. Трудно поверить, но герои пускаются в совершенно невероятные, нереальные романтические приключения. Но тут в нью-йоркскую квартиру подтягиваются родственники с Юга…
В жизни Бориса, прежде спокойной и размеренной, возникают запутанные и не всегда доступные для понимания ситуации, в которые вовлечены его друзья и бывшие любовницы, что выкрутиться, кажется, уже невозможно…




Видео: 1024x576 (16/9), 23.976 fps, AVC MPEG-4 High@L4.1 ~2038 kbps avg, 0.144 bit/pixel
Аудио: 48 kHz, AC3 Dolby Digital, 3/2 (L,C,R,l,r) + LFE ch, ~320 kbps avg




General
Unique ID: 240053912416379821172866019979995690842 (0xB498B3AA68FBEA94944016392558B75A)
Complete name: D:\Bud.chto.budet.2009.P.HDRip.mkv
Format: Matroska
Format version: Version 2
File size: 1.51 GiB
Duration: 1h 31mn
Overall bit rate: 2 359 Kbps
Movie name: Будь что будет / Whatever Works
Encoded date: UTC 2012-02-24 14:23:10
Writing application: mkvmerge v5.0.1 ('Es ist Sommer') built on Oct 24 2011 19:45:06
Writing library: libebml v1.2.2 + libmatroska v1.3.0

Video
ID: 1
Format: AVC
Format/Info: Advanced Video Codec
Format profile: High@L4.1
Format settings, CABAC: Yes
Format settings, ReFrames: 3 frames
Muxing mode: Header stripping
Codec ID: V_MPEG4/ISO/AVC
Duration: 1h 31mn
Bit rate: 2 038 Kbps
Width: 1 024 pixels
Height: 576 pixels
Display aspect ratio: 16:9
Frame rate: 23.976 fps
Color space: YUV
Chroma subsampling: 4:2:0
Bit depth: 8 bits
Scan type: Progressive
Bits/(Pixel*Frame): 0.144
Stream size: 1.28 GiB (84%)
Writing library: x264 core 65 r999kMod cc51047
Encoding settings: cabac=1 / ref=3 / deblock=1:0:0 / analyse=0x3:0x133 / me=umh / subme=6 / psy_rd=1.0:0.0 / mixed_ref=1 / me_range=16 / chroma_me=1 / trellis=1 / 8x8dct=1 / cqm=0 / deadzone=21,11 / chroma_qp_offset=-2 / threads=4 / thread_queue=4 / nr=0 / decimate=1 / mbaff=0 / bframes=3 / b_pyramid=1 / b_adapt=1 / b_bias=0 / direct=3 / wpredb=1 / keyint=250 / keyint_min=25 / scenecut=40(pre) / rc=2pass / bitrate=2038 / ratetol=1.0 / qcomp=0.60 / qpmin=10 / qpmax=51 / qpstep=4 / cplxblur=20.0 / qblur=0.5 / ip_ratio=1.40 / pb_ratio=1.30 / aq=1:1.00
Language: English
Default: Yes
Forced: No

Audio
ID: 2
Format: AC-3
Format/Info: Audio Coding 3
Mode extension: CM (complete main)
Muxing mode: Header stripping
Codec ID: A_AC3
Duration: 1h 31mn
Bit rate mode: Constant
Bit rate: 320 Kbps
Channel(s): 3 channels
Channel positions: Front: L C R
Sampling rate: 48.0 KHz
Bit depth: 16 bits
Compression mode: Lossy
Stream size: 210 MiB (14%)
Language: Russian
Default: Yes
Forced: No








Поделиться:




реклама партнёра


Вернуться к началу
 Профиль Отправить личное сообщение  
 
   Похожие торренты   Автор   Торрент   Размер 
В этой теме нет новых непрочитанных сообщений. Кое-что еще / Anything Else (Вуди Аллен / Woody Allen) [2003г., мелодрама, комедия, DVDRip] MVO

Alfredovich

82 | 4

1.45 ГБ

В этой теме нет новых непрочитанных сообщений. Преступления и проступки / Crimes and Misdemeanors (Вуди Аллен / Woody Allen) [1989г.,арт-хаус, драма, мелодрама, комедия, DVDRip] AVO

Alfredovich

10 | 3

1.45 ГБ

В этой теме нет новых непрочитанных сообщений. Будь мужчиной / Man Up (Бен Палмер) [мелодрама, комедия, 2015] HDRip, Mvo

Dracon

2464 | 394

1.46 ГБ

В этой теме нет новых непрочитанных сообщений. Иррациональный человек / Irrational Man (Вуди Аллен) [драма, детектив, 2015] BDRip, dub [Чистый звук]

Dracon

11729 | 950

1.45 ГБ

В этой теме нет новых непрочитанных сообщений. Иррациональный человек / Irrational Man (Вуди Аллен) [драма, детектив, 2015] BDRip 720p, dub [Чистый звук]

Dracon

3670 | 185

3.81 ГБ

В этой теме нет новых непрочитанных сообщений. Будь мужчиной / Man Up (Бен Палмер) [мелодрама, комедия, 2015] BDRip 720p, Mvo

Dracon

18 | 2

4.42 ГБ

В этой теме нет новых непрочитанных сообщений. Будь моим Валентином / Be My Valentine [Мелодрама, 2013] SATRip, Mvo

salma3

71 | 5

1.17 ГБ


Начать новую тему Ответить на тему  [ 1 сообщение ] 




Для Мосгорсуда, Роскомнадзора и рекламодателей:: mosgorsud-torrent[собачка]yandex.ru