Торрент файл
скачать торрент магнет ссылка Добавлен: 01 апр 2012, 21:34
Размер: 1.48 ГБ
Сидеров: 598
Личеров: 66
Автор

СообщениеДобавлено: 01 апр 2012, 21:34 

Не в сети
Супермодератор
Аватара пользователя
Дата регистрации:
11 апр 2010, 18:10
Спасибо: 5802 / 7
Сообщения: 56779
[b]Слишком крута для тебя / She's Out of My League[/b]


Перевод: Профессиональный (полное дублирование) [Лицензия]
Субтитры: отсутствуют
Формат: HDRip-AVC, MKV, H.264, AC3

Страна: США

Режиссер: Джим Филд Смит
Жанр: мелодрама, комедия
Продолжительность: 01:44:32
Год выпуска: 2010

В ролях: Джей Барушель, Элис Ив, ТиДжей Миллер, Майк Фогель, Нейт Торренс, Линдсэй Слоун, Кайл Борнхеймер, Джессика Ст. Клэр, Кристен Риттер, Дебра Джо Рапп.

Описание: Неуверенный в себе Кирк Кеттнер отвечает за безопасность на авиарейсах, точнее просит пассажиров перед полётом снимать свою обувь для досмотра. Однажды Кирку повезло встретить Молли и вопреки его ожиданиям, с этой умной и очаровательной девушкой у них возникли взаимные чувства. Вот только не стоило Кирку слушать советов семьи и друзей, считающих, что Молли слишком хороша для него.



Видео: 1024x432 (2.35:1), 23.976 fps, AVC MPEG-4 High@L4.1 ~1654 kbps avg, 0.156 bit/pixel
Аудио: 48 kHz, AC3 Dolby Digital, 3/2 (L,C,R,l,r) + LFE ch, ~384 kbps avg

Рип от: S.I.D 'a


General
Unique ID: 193465148532718005431649449002097667729 (0x918C0843342C29BB8D676074063F6E91)
Complete name: F:\Рипы от S.I.D' а\Shes.Out.of.My.League.2010.D.HDRip.mkv
Format: Matroska
Format version: Version 2
File size: 1.48 GiB
Duration: 1h 44mn
Overall bit rate: 2 025 Kbps
Movie name: Shes.Out.of.My.League.S.I.D
Encoded date: UTC 2012-02-29 20:29:36
Writing application: mkvmerge v5.0.1 ('Es ist Sommer') built on Oct 24 2011 19:45:06
Writing library: libebml v1.2.2 + libmatroska v1.3.0

Video
ID: 1
Format: AVC
Format/Info: Advanced Video Codec
Format profile: High@L4.1
Format settings, CABAC: Yes
Format settings, ReFrames: 8 frames
Muxing mode: Header stripping
Codec ID: V_MPEG4/ISO/AVC
Duration: 1h 44mn
Bit rate: 1 654 Kbps
Width: 1 024 pixels
Height: 432 pixels
Display aspect ratio: 2.35:1
Frame rate: 23.976 fps
Color space: YUV
Chroma subsampling: 4:2:0
Bit depth: 8 bits
Scan type: Progressive
Bits/(Pixel*Frame): 0.156
Stream size: 1.17 GiB (79%)
Writing library: x264 core 119 r2106 07efeb4
Encoding settings: cabac=1 / ref=8 / deblock=1:-1:-1 / analyse=0x3:0x111 / me=hex / subme=7 / psy=1 / psy_rd=1.00:0.10 / mixed_ref=1 / me_range=16 / chroma_me=1 / trellis=2 / 8x8dct=1 / cqm=0 / deadzone=21,11 / fast_pskip=1 / chroma_qp_offset=-3 / threads=6 / sliced_threads=0 / nr=0 / decimate=1 / interlaced=0 / bluray_compat=0 / constrained_intra=0 / bframes=4 / b_pyramid=2 / b_adapt=2 / b_bias=0 / direct=1 / weightb=1 / open_gop=0 / weightp=2 / keyint=250 / keyint_min=23 / scenecut=40 / intra_refresh=0 / rc_lookahead=40 / rc=abr / mbtree=1 / bitrate=1654 / ratetol=1.0 / qcomp=0.60 / qpmin=0 / qpmax=69 / qpstep=4 / ip_ratio=1.40 / aq=1:0.10
Language: English
Default: Yes
Forced: No

Audio
ID: 2
Format: AC-3
Format/Info: Audio Coding 3
Mode extension: CM (complete main)
Muxing mode: Header stripping
Codec ID: A_AC3
Duration: 1h 44mn
Bit rate mode: Constant
Bit rate: 384 Kbps
Channel(s): 6 channels
Channel positions: Front: L C R, Side: L R, LFE
Sampling rate: 48.0 KHz
Bit depth: 16 bits
Compression mode: Lossy
Stream size: 287 MiB (19%)
Title: Dub
Language: Russian
Default: Yes
Forced: No








Поделиться:




реклама партнёра


Вернуться к началу
 Профиль Отправить личное сообщение  
 
   Похожие торренты   Автор   Торрент   Размер 
В этой теме нет новых непрочитанных сообщений. Не те парни / The Wrong Mans [S02] (Джим Филд Смит) [2015, Комедия, WEB-DLRip | SNK-TV]

Dracon

138 | 17

1.21 ГБ

В этой теме нет новых непрочитанных сообщений. Пивная лига / Beer League [Комедия, Спорт, 2006] HDRip, Mvo

salma3

3 | 2

1.46 ГБ

В этой теме нет новых непрочитанных сообщений. Слишком красивая жена [01-04 из 04] (Сергей Мезенцев) [Мелодрама, 2013] WEB-DLRip

Dracon

2149 | 248

2.73 ГБ

В этой теме нет новых непрочитанных сообщений. Слишком красивая жена [01-02 из 02] (Сергей Мезенцев) [Мелодрама, 2013] HDTV 1080i

Dracon

108 | 20

10.75 ГБ

В этой теме нет новых непрочитанных сообщений. Слишком красивая жена [01-02 из 02] (Сергей Мезенцев) [Мелодрама, 2013] HDTVRip 720p

Dracon

72 | 21

7.39 ГБ

В этой теме нет новых непрочитанных сообщений. Мужчина, которого слишком сильно любили / L'homme qu'on aimait trop [драма, 2014] HDRip, Mvo

Dracon

5 | 3

2.06 ГБ

В этой теме нет новых непрочитанных сообщений. Бешеные гонки / Drive Hard (Брайан Тренчард-Смит) [боевик, криминал, комедия, 2014] HDRip, mvo [официльное]

Dracon

2519 | 162

1.37 ГБ


Начать новую тему Ответить на тему  [ 1 сообщение ] 




Для Мосгорсуда, Роскомнадзора и рекламодателей:: mosgorsud-torrent[собачка]yandex.ru