Торрент файл
скачать торрент магнет ссылка Добавлен: 01 апр 2012, 21:33
Размер: 1.47 ГБ
Сидеров: 228
Личеров: 9
Автор

СообщениеДобавлено: 01 апр 2012, 21:33 

Не в сети
Супермодератор
Аватара пользователя
Дата регистрации:
11 апр 2010, 18:10
Спасибо: 5799 / 7
Сообщения: 56779
[b]Как украсть небоскреб / Tower Heist[/b]


Перевод: Профессиональный (полное дублирование)
Субтитры: отсутствуют
Формат: HDRip-AVC, MKV, H.264, AC3

Страна: США

Режиссер: Бретт Рэтнер
Жанр: комедия, криминал
Продолжительность: 01:44:33
Год выпуска: 2011

В ролях: Бен Стиллер, Эдди Мёрфи, Кейси Аффлек, Алан Алда, Мэттью Бродерик, Теа Леони, Майкл Пенья, Габури «Гэбби» Сидибе, Стефен Хендерсон, Джадд Хёрш.

Описание: Джошу Ковачу не повезло — его поимел злобный финансист, живущий в роскошных апартаментах на верхнем этаже небоскреба. Чтобы вернуть деньги, Джош с друзьями решается на грандиозную кражу со взломом.

Но одним им это не под силу, и они обращаются к матерому преступнику. Дело за малым — шесть новоявленных друзей Джоушена должны пробраться в пентхаус и отыскать 20 миллионов долларов.




Видео: 1024x432 (2.35:1), 23.976 fps, AVC MPEG-4 High@L4.1 ~1653 kbps avg, 0.156 bit/pixel
Аудио: 48 kHz, AC3 Dolby Digital, 3/2 (L,C,R,l,r) + LFE ch, ~384 kbps avg

Рип от: S.I.D 'a


General
Unique ID: 229964278906258542211607979496391384076 (0xAD0182539FB23DF695AF4F84994D1C0C)
Complete name: F:\Рипы от S.I.D' а\Tower.Heist.2011.D.HDRip.mkv
Format: Matroska
Format version: Version 2
File size: 1.47 GiB
Duration: 1h 44mn
Overall bit rate: 2 016 Kbps
Movie name: Tower.Heist.S.I.D
Encoded date: UTC 2012-03-02 23:16:57
Writing application: mkvmerge v5.0.1 ('Es ist Sommer') built on Oct 24 2011 19:45:06
Writing library: libebml v1.2.2 + libmatroska v1.3.0

Video
ID: 1
Format: AVC
Format/Info: Advanced Video Codec
Format profile: High@L4.1
Format settings, CABAC: Yes
Format settings, ReFrames: 8 frames
Muxing mode: Header stripping
Codec ID: V_MPEG4/ISO/AVC
Duration: 1h 44mn
Bit rate: 1 653 Kbps
Width: 1 024 pixels
Height: 432 pixels
Display aspect ratio: 2.35:1
Frame rate: 23.976 fps
Color space: YUV
Chroma subsampling: 4:2:0
Bit depth: 8 bits
Scan type: Progressive
Bits/(Pixel*Frame): 0.156
Stream size: 1.16 GiB (79%)
Writing library: x264 core 119 r2106 07efeb4
Encoding settings: cabac=1 / ref=8 / deblock=1:-1:-1 / analyse=0x3:0x111 / me=hex / subme=7 / psy=1 / psy_rd=1.00:0.10 / mixed_ref=1 / me_range=16 / chroma_me=1 / trellis=2 / 8x8dct=1 / cqm=0 / deadzone=21,11 / fast_pskip=1 / chroma_qp_offset=-3 / threads=6 / sliced_threads=0 / nr=0 / decimate=1 / interlaced=0 / bluray_compat=0 / constrained_intra=0 / bframes=3 / b_pyramid=2 / b_adapt=2 / b_bias=0 / direct=1 / weightb=1 / open_gop=0 / weightp=2 / keyint=250 / keyint_min=23 / scenecut=40 / intra_refresh=0 / rc_lookahead=40 / rc=abr / mbtree=1 / bitrate=1653 / ratetol=1.0 / qcomp=0.60 / qpmin=0 / qpmax=69 / qpstep=4 / ip_ratio=1.40 / aq=1:0.10
Language: English
Default: Yes
Forced: No

Audio
ID: 2
Format: AC-3
Format/Info: Audio Coding 3
Mode extension: CM (complete main)
Muxing mode: Header stripping
Codec ID: A_AC3
Duration: 1h 44mn
Bit rate mode: Constant
Bit rate: 384 Kbps
Channel(s): 6 channels
Channel positions: Front: L C R, Side: L R, LFE
Sampling rate: 48.0 KHz
Bit depth: 16 bits
Compression mode: Lossy
Stream size: 287 MiB (19%)
Title: Dub
Language: Russian
Default: Yes
Forced: No








Поделиться:




реклама партнёра


Вернуться к началу
 Профиль Отправить личное сообщение  
 
   Похожие торренты   Автор   Торрент   Размер 
В этой теме нет новых непрочитанных сообщений. Небоскреб смерти / Многоэтажка / Tower Block [Триллер, 2011] HDRip, Mvo [Лицензия]

salma3

122 | 6

1.46 ГБ

В этой теме нет новых непрочитанных сообщений. Многоэтажка / Небоскреб смерти / Tower Block [триллер, 2011] DVD5, Mvo+Sub

salma3

9 | 7

4.32 ГБ

В этой теме нет новых непрочитанных сообщений. Небоскреб смерти / Многоэтажка / Tower Block [триллер, 2011] BDRip-AVC, Mvo [Лицензия]

salma3

472 | 34

1.45 ГБ

В этой теме нет новых непрочитанных сообщений. Небоскреб смерти / Tower Block [Триллер, 2012] BDRip 1080p, Mvo (Лицензия)

salma3

98 | 18

10.31 ГБ

В этой теме нет новых непрочитанных сообщений. Как украсть бриллиант / The Love Punch [Комедия, 2013] HDRip, Avo

salma3

794 | 20

1.46 ГБ

В этой теме нет новых непрочитанных сообщений. Как украсть бриллиант / Love Punch [Комедия, 2013] HDRip, Dub [itunes]

Dracon

22 | 2

1.46 ГБ

В этой теме нет новых непрочитанных сообщений. Как украсть бриллиант / Love Punch [Комедия, 2013] HDRip, dub [Чистый звук]

Dracon

7 | 2

1.37 ГБ


Начать новую тему Ответить на тему  [ 1 сообщение ] 




Для Мосгорсуда, Роскомнадзора и рекламодателей:: mosgorsud-torrent[собачка]yandex.ru