Торрент файл
скачать торрент магнет ссылка Добавлен: 01 апр 2012, 21:33
Размер: 2.1 ГБ
Сидеров: 1406
Личеров: 36
Автор

СообщениеДобавлено: 01 апр 2012, 21:33 

Не в сети
Супермодератор
Аватара пользователя
Дата регистрации:
11 апр 2010, 18:10
Спасибо: 5803 / 7
Сообщения: 56779
Как украсть небоскреб / Tower Heist


Перевод: Профессиональный (полное дублирование), cубтитры: отсутствуют
Формат: HDRip-AVC, MKV, H.264, AC3
Страна: США
Режиссер: Бретт Рэтнер
Жанр: комедия, криминал
Продолжительность: 01:44:33
Год выпуска: 2011

В ролях: Бен Стиллер, Эдди Мёрфи, Кейси Аффлек, Алан Алда, Мэттью Бродерик, Теа Леони, Майкл Пенья, Габури «Гэбби» Сидибе, Стефен Хендерсон, Джадд Хёрш

Описание: Джошу Ковачу не повезло — его поимел злобный финансист, живущий в роскошных апартаментах на верхнем этаже небоскреба. Чтобы вернуть деньги, Джош с друзьями решается на грандиозную кражу со взломом.
Но одним им это не под силу, и они обращаются к матерому преступнику. Дело за малым — шесть новоявленных друзей Джоушена должны пробраться в пентхаус и отыскать 20 миллионов долларов.




Видео: 1280 x 536 (2.35:1), 23.976 fps, AVC (х264) High@L4.1, ~ 2494 Kbps, 0.152 bit/pixel
Аудио: 48 kHz, AC3 Dolby Digital, 3/2 (L,C,R,l,r) + LFE ch, ~ 384 kbps


Рип: jeenart

General
Unique ID: 181605085967330746903401888143012009797 (0x889FDE082491E5CD8653CD8C55A81745)
Complete name: F:\Мои релизы\Все релизы 10\kak_ykrast_neboskreb_[tfile.ru].mkv
Format: Matroska
File size: 2.10 GiB
Duration: 1h 44mn
Overall bit rate: 2 873 Kbps
Encoded date: UTC 2012-03-03 02:45:49
Writing application: mkvmerge v4.6.0 ('Still Crazy After All These Years') сборка от Apr1 2011 21:01:49
Writing library: libebml v1.2.0 + libmatroska v1.1.0

Video
ID: 1
Format: AVC
Format/Info: Advanced Video Codec
Format profile: High@L4.1
Format settings, CABAC: Yes
Format settings, ReFrames: 4 frames
Format settings, GOP: M=4, N=16
Codec ID: V_MPEG4/ISO/AVC
Duration: 1h 44mn
Bit rate: 2 494 Kbps
Width: 1 280 pixels
Height: 536 pixels
Display aspect ratio: 2.35:1
Frame rate: 23.976 fps
Color space: YUV
Chroma subsampling: 4:2:0
Bit depth: 8 bits
Scan type: Progressive
Bits/(Pixel*Frame): 0.152
Stream size: 1.78 GiB (85%)
Writing library: x264 core 115 r1937 aa21558
Encoding settings: cabac=1 / ref=3 / deblock=1:-1:-1 / analyse=0x3:0x113 / me=hex / subme=7 / psy=1 / psy_rd=1.00:0.10 / mixed_ref=1 / me_range=16 / chroma_me=1 / trellis=1 / 8x8dct=1 / cqm=0 / deadzone=21,11 / fast_pskip=1 / chroma_qp_offset=-3 / threads=6 / sliced_threads=0 / nr=0 / decimate=1 / interlaced=0 / bluray_compat=0 / constrained_intra=0 / bframes=3 / b_pyramid=2 / b_adapt=1 / b_bias=0 / direct=3 / weightb=1 / open_gop=0 / weightp=2 / keyint=250 / keyint_min=23 / scenecut=40 / intra_refresh=0 / rc_lookahead=40 / rc=2pass / mbtree=1 / bitrate=2494 / ratetol=1.0 / qcomp=0.60 / qpmin=0 / qpmax=69 / qpstep=4 / cplxblur=20.0 / qblur=0.5 / ip_ratio=1.40 / aq=1:1.00

Audio
ID: 2
Format: AC-3
Format/Info: Audio Coding 3
Mode extension: CM (complete main)
Codec ID: A_AC3
Duration: 1h 44mn
Bit rate mode: Constant
Bit rate: 384 Kbps
Channel(s): 6 channels
Channel positions: Front: L C R, Side: L R, LFE
Sampling rate: 48.0 KHz
Bit depth: 16 bits
Compression mode: Lossy
Stream size: 287 MiB (13%)













Поделиться:




реклама партнёра


Вернуться к началу
 Профиль Отправить личное сообщение  
 
   Похожие торренты   Автор   Торрент   Размер 
В этой теме нет новых непрочитанных сообщений. Небоскреб смерти / Многоэтажка / Tower Block [Триллер, 2011] HDRip, Mvo [Лицензия]

salma3

122 | 6

1.46 ГБ

В этой теме нет новых непрочитанных сообщений. Многоэтажка / Небоскреб смерти / Tower Block [триллер, 2011] DVD5, Mvo+Sub

salma3

9 | 7

4.32 ГБ

В этой теме нет новых непрочитанных сообщений. Небоскреб смерти / Многоэтажка / Tower Block [триллер, 2011] BDRip-AVC, Mvo [Лицензия]

salma3

472 | 34

1.45 ГБ

В этой теме нет новых непрочитанных сообщений. Небоскреб смерти / Tower Block [Триллер, 2012] BDRip 1080p, Mvo (Лицензия)

salma3

98 | 18

10.31 ГБ

В этой теме нет новых непрочитанных сообщений. Как украсть бриллиант / The Love Punch [Комедия, 2013] HDRip, Avo

salma3

794 | 20

1.46 ГБ

В этой теме нет новых непрочитанных сообщений. Как украсть бриллиант / Love Punch [Комедия, 2013] HDRip, Dub [itunes]

Dracon

22 | 2

1.46 ГБ

В этой теме нет новых непрочитанных сообщений. Как украсть бриллиант / Love Punch [Комедия, 2013] HDRip, dub [Чистый звук]

Dracon

7 | 2

1.37 ГБ


Начать новую тему Ответить на тему  [ 1 сообщение ] 




Для Мосгорсуда, Роскомнадзора и рекламодателей:: mosgorsud-torrent[собачка]yandex.ru