Торрент файл
скачать торрент магнет ссылка Добавлен: 01 апр 2012, 21:32
Размер: 744.9 МБ
Сидеров: 14
Личеров: 8
Автор

СообщениеДобавлено: 01 апр 2012, 21:32 

Не в сети
Супермодератор
Аватара пользователя
Дата регистрации:
11 апр 2010, 18:10
Спасибо: 5962 / 7
Сообщения: 56765
Астерикс и Обеликс против Цезаря / Astеrix et Obеlix contre Cеsar



Перевод: Профессиональный (полное дублирование), cубтитры: отсутствуют

Формат: LowHDRip, AVI, XviD, MP3

Страна: Франция, Германия, Италия

Режиссер: Клод Зиди / Claude Zidi

Жанр: Фэнтези, комедия, приключения, семейный

Продолжительность: 01:50:01

Год выпуска: 1999

В ролях: Кристиан Клавье, Жерар Депардье, Роберто Бениньи, Мишель Галабрю, Клод Пьеплю, Даниэль Прево, Пьер Палмаде, Летиция Каста, Ариель Домбаль .

Описание: В 50-м году до нашей эры римский император Юлий Цезарь покорил Галлию. Только жители одной маленькой деревеньки отказались платить налоги римлянам. Ведь у них есть волшебный напиток, с помощью которого неразлучные друзья Астерикс и Обеликс становятся супергероями, способными сразиться со всей Римской империей...

[/field]

Видео: 640x272 (2.35:1), 23.976 fps, XviD build 64 ~809 kbps avg, 0.19 bit/pixel

Аудио: 48 kHz, MPEG Layer 3, 2 ch, ~128.00 kbps avg
General
Complete name : C:\Asterix&Obelix\Asterix&Obelix1_HDRip_Dub.avi
Format : AVI
Format/Info : Audio Video Interleave
File size : 745 MiB
Duration : 1h 50mn
Overall bit rate : 947 Kbps
Writing application : VirtualDubMod 1.5.10.2 (build 2540/release)
Writing library : VirtualDubMod build 2540/release

Video
ID : 0
Format : MPEG-4 Visual
Format profile : Advanced Simple@L5
Format settings, BVOP : 1
Format settings, QPel : No
Format settings, GMC : No warppoints
Format settings, Matrix : Custom
Codec ID : XVID
Codec ID/Hint : XviD
Duration : 1h 50mn
Bit rate : 809 Kbps
Width : 640 pixels
Height : 272 pixels
Display aspect ratio : 2.35:1
Frame rate : 23.976 fps
Color space : YUV
Chroma subsampling : 4:2:0
Bit depth : 8 bits
Scan type : Progressive
Compression mode : Lossy
Bits/(Pixel*Frame) : 0.194
Stream size : 637 MiB (85%)
Writing library : XviD 64

Audio
ID : 1
Format : MPEG Audio
Format version : Version 1
Format profile : Layer 3
Mode : Joint stereo
Mode extension : MS Stereo
Codec ID : 55
Codec ID/Hint : MP3
Duration : 1h 50mn
Bit rate mode : Constant
Bit rate : 128 Kbps
Channel(s) : 2 channels
Sampling rate : 48.0 KHz
Compression mode : Lossy
Stream size : 101 MiB (14%)
Alignment : Split accross interleaves
Interleave, duration : 42 ms (1.00 video frame)
Interleave, preload duration : 500 ms







Поделиться:




реклама партнёра


Вернуться к началу
 Профиль Отправить личное сообщение  
 
   Похожие торренты   Автор   Торрент   Размер 
В этой теме нет новых непрочитанных сообщений. Астерикс и Обеликс против Цезаря / Asterix et Obelix contre Cesar [фэнтези, комедия, приключения, семейный, 1999] BDRip, Dub+Sub

salma3

40 | 16

2.18 ГБ

В этой теме нет новых непрочитанных сообщений. Астерикс и Обеликс: Миссия Клеопатра / Astеrix & Obеlix: Mission Clеopаtre [фэнтези, комедия, приключения, семейный, 2001] BDRip, Dub

salma3

33 | 20

2.18 ГБ

В этой теме нет новых непрочитанных сообщений. Жан-Клод Ван Джонсон / Jean-Claude Van Johnson [01х00 из 05] [комедия, 2016] WEBRip, Dvo [NEON Studio]

salma3

322 | 26

379.02 МБ

В этой теме нет новых непрочитанных сообщений. Мари-Шанталь против доктора Ха / Marie-Chantal contre le docteur Kha [комедия, триллер, криминал, 1965] DVDRip, Avo

salma3

55 | 10

1.44 ГБ

В этой теме нет новых непрочитанных сообщений. Астерикс: Земля Богов / Asterix: Le domaine des dieux [мультфильм, приключения, фэнтези, комедия, 2014] TS, dub [Чистый звук]

Dracon

5001 | 162

1.36 ГБ

В этой теме нет новых непрочитанных сообщений. Астерикс: Земля Богов / Asterix: Le domaine des dieux (Луис Клиши, Александр Астье) [мультфильм, приключения, фэнтези, комедия, 2014] HDRip, Dub [iTunes]

Dracon

310 | 11

1.37 ГБ

В этой теме нет новых непрочитанных сообщений. Астерикс: Земля Богов / Asterix: Le domaine des dieux (Луис Клиши, Александр Астье) [мультфильм, приключения, фэнтези, комедия, 2014] BDRip 720p, Dub [iTunes]

Dracon

1105 | 88

3.36 ГБ


Начать новую тему Ответить на тему  [ 1 сообщение ] 




Для Мосгорсуда, Роскомнадзора и рекламодателей:: mosgorsud-torrent[собачка]yandex.ru