Торрент файл
скачать торрент магнет ссылка Добавлен: 01 апр 2012, 21:30
Размер: 1.45 ГБ
Сидеров: 92
Личеров: 10
Автор

СообщениеДобавлено: 01 апр 2012, 21:30 

Не в сети
Супермодератор
Аватара пользователя
Дата регистрации:
11 апр 2010, 18:10
Спасибо: 5801 / 7
Сообщения: 56779
Папина дочка / College Road Trip


Перевод: Профессиональный (многоголосый, закадровый), cубтитры: отсутствуют
Формат: HDRip-AVC, MKV, H.264, AC3
Страна: США
Режиссер: Роджер Камбл
Жанр: драма, комедия, приключения, семейный
Продолжительность: 01:23:12
Год выпуска: 2008

В ролях: Мартин Лоуренс, Рэйвен, Бренда Сонг, Ким Уитли, Адам ЛеФевр, Юджин Джонс, Лукас Грэбил

Описание: Недавняя школьница лелеет амбициозные планы поступить в самый лучший юридический институт, но перед тем как подавать документы, хочет сама объездить все подходящие учебные заведения и выбрать место будущей учебы.
Дело осложняется, когда сопровождать абитуриентку вызывается ее отец — профессиональный полицейский, слишком усердно старающийся оградить свое чадо от любых волнений и проблем. Будь его воля — вообще бы никуда из дома не отпустил!




Видео: 1280 x 528 (2:40:1), 23.976 fps, AVC (х264) High@L4.1, ~ 2116 Kbps, 0.131 bit/pixel
Аудио: 48 kHz, AC3 Dolby Digital, 3/2 (L,C,R,l,r) + LFE ch, ~384 kbps avg


Рип: jeenart

General
Unique ID: 189057549530709579072372194810140430310 (0x8E3B28DA962AB82D8F8CADDF42AA0FE6)
Complete name: F:\Мои релизы\Все релизы 10\papina_dochka_[tfile.ru].mkv
Format: Matroska
File size: 1.45 GiB
Duration: 1h 23mn
Overall bit rate: 2 499 Kbps
Encoded date: UTC 2012-03-08 13:31:52
Writing application: mkvmerge v4.6.0 ('Still Crazy After All These Years') сборка от Apr1 2011 21:01:49
Writing library: libebml v1.2.0 + libmatroska v1.1.0

Video
ID: 1
Format: AVC
Format/Info: Advanced Video Codec
Format profile: High@L4.1
Format settings, CABAC: Yes
Format settings, ReFrames: 4 frames
Format settings, GOP: M=4, N=32
Codec ID: V_MPEG4/ISO/AVC
Duration: 1h 23mn
Bit rate: 2 116 Kbps
Width: 1 280 pixels
Height: 528 pixels
Display aspect ratio: 2.40:1
Frame rate: 23.976 fps
Color space: YUV
Chroma subsampling: 4:2:0
Bit depth: 8 bits
Scan type: Progressive
Bits/(Pixel*Frame): 0.131
Stream size: 1.20 GiB (83%)
Writing library: x264 core 115 r1937 aa21558
Encoding settings: cabac=1 / ref=3 / deblock=1:-1:-1 / analyse=0x3:0x113 / me=hex / subme=7 / psy=1 / psy_rd=1.00:0.10 / mixed_ref=1 / me_range=16 / chroma_me=1 / trellis=1 / 8x8dct=1 / cqm=0 / deadzone=21,11 / fast_pskip=1 / chroma_qp_offset=-3 / threads=6 / sliced_threads=0 / nr=0 / decimate=1 / interlaced=0 / bluray_compat=0 / constrained_intra=0 / bframes=3 / b_pyramid=2 / b_adapt=1 / b_bias=0 / direct=3 / weightb=1 / open_gop=0 / weightp=2 / keyint=250 / keyint_min=23 / scenecut=40 / intra_refresh=0 / rc_lookahead=40 / rc=2pass / mbtree=1 / bitrate=2116 / ratetol=1.0 / qcomp=0.60 / qpmin=0 / qpmax=69 / qpstep=4 / cplxblur=20.0 / qblur=0.5 / ip_ratio=1.40 / aq=1:1.00

Audio
ID: 2
Format: AC-3
Format/Info: Audio Coding 3
Mode extension: CM (complete main)
Codec ID: A_AC3
Duration: 1h 23mn
Bit rate mode: Constant
Bit rate: 384 Kbps
Channel(s): 6 channels
Channel positions: Front: L C R, Side: L R, LFE
Sampling rate: 48.0 KHz
Bit depth: 16 bits
Compression mode: Lossy
Stream size: 229 MiB (15%)













Поделиться:




реклама партнёра


Вернуться к началу
 Профиль Отправить личное сообщение  
 
   Похожие торренты   Автор   Торрент   Размер 
В этой теме нет новых непрочитанных сообщений. Папина дочка / College Road Trip [Комедия, драма, приключения, семейный, 2008] BDRip 720р, Mvo+Sub

salma3

52 | 8

4.79 ГБ

В этой теме нет новых непрочитанных сообщений. Топ Гир: Идеальное путешествие 2 / Top Gear: The Perfect Road Trip 2 [Автошоу, приключения, 2014] HDRip, mvo

Dracon

1 | 4

1.49 ГБ

В этой теме нет новых непрочитанных сообщений. Элвин и бурундуки 4 / Alvin and the Chipmunks: The Road Chip [комедия, приключения, семейный, музыка, 2015] HDRip-1080p, Dub [Трэйлер]

salma3

645 | 14

54.55 МБ

В этой теме нет новых непрочитанных сообщений. Топ Гир: Идеальное путешествие 2 / Top Gear: The Perfect Road Trip 2 [Автошоу, приключения, 2014] BDRip 720p, Mvo

Dracon

3 | 4

7.34 ГБ

В этой теме нет новых непрочитанных сообщений. Элвин и бурундуки: Грандиозное бурундуключение / Alvin and the Chipmunks: The Road Chip [мультфильм, фэнтези, комедия, приключения, семейный, музыка, 2015] HDRip, Dub [iTunes]

salma3

10565 | 1034

1.37 ГБ

В этой теме нет новых непрочитанных сообщений. Элвин и бурундуки 4 / Alvin and the Chipmunks: The Road Chip[Комедия, Приключения, Семейный 2015]CamRip

yurban

9945 | 293

1.37 ГБ

В этой теме нет новых непрочитанных сообщений. Элвин и бурундуки: Грандиозное бурундуключение / Alvin and the Chipmunks: The Road Chip [мультфильм, фэнтези, комедия, приключения, семейный, музыка, 2015] BDRemux 1080p, Dub+Sub [iTunes]

salma3

11 | 6

22.55 ГБ


Начать новую тему Ответить на тему  [ 1 сообщение ] 




Для Мосгорсуда, Роскомнадзора и рекламодателей:: mosgorsud-torrent[собачка]yandex.ru