Торрент файл
скачать торрент магнет ссылка Добавлен: 01 апр 2012, 21:29
Размер: 1.76 ГБ
Сидеров: 229
Личеров: 35
Автор

СообщениеДобавлено: 01 апр 2012, 21:29 

Не в сети
Супермодератор
Аватара пользователя
Дата регистрации:
11 апр 2010, 18:10
Спасибо: 5960 / 7
Сообщения: 56765
[b]Американский пирог / American Pie[/b]


Перевод: Профессиональный (полное дублирование)
Субтитры: отсутствуют
Формат: HDRip-AVC, MKV, H.264, AC3

Страна: США

Режиссер: Пол Вайц, Крис Вайц
Жанр: мелодрама, комедия
Продолжительность: 01:35:36
Год выпуска: 1999

В ролях: Джейсон Биггз, Крис Клейн, Томас Иэн Николас, Элисон Хэннигэн, Шеннон Элизабет, Тара Рид, Эдди Кэй Томас, Шонн Уильям Скотт, Юджин Леви, Наташа Лионни.

Описание: На вечеринке четверо старшеклассников, Джим, Кевин, Финч и Оз, выясняют, что никто из них еще не имел сексуального опыта с девушками. Приятели считают, что с коллективной девственностью надо обязательно расстаться до того, как они переступят порог колледжа.

На носу школьный выпускной бал, и у друзей осталось совсем мало времени на то, чтобы выполнить задуманное. Для того чтобы ускорить процесс, товарищи решают устроить соревнование. Победителем станет тот, кто сделает это первым! Кому повезёт? А главное, нужно ли это им вообще?




Видео: 1024x432 (2.35:1), 23.976 fps, AVC MPEG-4 High@L4.1 ~1844 kbps avg, 0.174 bit/pixel
Аудио #1: русский48 kHz, AC3 Dolby Digital, 3/2 (L,C,R,l,r) + LFE ch, ~384 kbps avg [Профессиональный (полное дублирование)]
Аудио #2: русский48 kHz, AC3 Dolby Digital, 3/2 (L,C,R,l,r) + LFE ch, ~384 kbps avg [Авторский (Ю.Живов) отдельно]

Рип от: S.I.D 'a


General
Unique ID: 175939823702771140386965195459277061473 (0x845CC7097311EDFBA1E9EFA2004F7D61)
Complete name: F:\Рипы от S.I.D' а\Amerikanskij pirog\Amerikanskij.pirog.1999.D.HDRip.mkv
Format: Matroska
Format version: Version 2
File size: 1.50 GiB
Duration: 1h 35mn
Overall bit rate: 2 247 Kbps
Movie name: American.Pie.S.I.D
Encoded date: UTC 2012-03-17 09:42:16
Writing application: mkvmerge v5.0.1 ('Es ist Sommer') built on Oct 24 2011 19:45:06
Writing library: libebml v1.2.2 + libmatroska v1.3.0

Video
ID: 1
Format: AVC
Format/Info: Advanced Video Codec
Format profile: High@L4.1
Format settings, CABAC: Yes
Format settings, ReFrames: 8 frames
Muxing mode: Header stripping
Codec ID: V_MPEG4/ISO/AVC
Duration: 1h 35mn
Bit rate: 1 844 Kbps
Width: 1 024 pixels
Height: 432 pixels
Display aspect ratio: 2.35:1
Frame rate: 23.976 fps
Color space: YUV
Chroma subsampling: 4:2:0
Bit depth: 8 bits
Scan type: Progressive
Bits/(Pixel*Frame): 0.174
Stream size: 1.21 GiB (81%)
Writing library: x264 core 119 r2106 07efeb4
Encoding settings: cabac=1 / ref=8 / deblock=1:-1:-1 / analyse=0x3:0x111 / me=hex / subme=7 / psy=1 / psy_rd=1.00:0.10 / mixed_ref=1 / me_range=16 / chroma_me=1 / trellis=2 / 8x8dct=1 / cqm=0 / deadzone=21,11 / fast_pskip=1 / chroma_qp_offset=-3 / threads=6 / sliced_threads=0 / nr=0 / decimate=1 / interlaced=0 / bluray_compat=0 / constrained_intra=0 / bframes=3 / b_pyramid=2 / b_adapt=2 / b_bias=0 / direct=1 / weightb=1 / open_gop=0 / weightp=2 / keyint=250 / keyint_min=23 / scenecut=40 / intra_refresh=0 / rc_lookahead=40 / rc=abr / mbtree=1 / bitrate=1844 / ratetol=1.0 / qcomp=0.60 / qpmin=0 / qpmax=69 / qpstep=4 / ip_ratio=1.40 / aq=1:0.10
Language: English
Default: Yes
Forced: No

Audio
ID: 2
Format: AC-3
Format/Info: Audio Coding 3
Mode extension: CM (complete main)
Muxing mode: Header stripping
Codec ID: A_AC3
Duration: 1h 35mn
Bit rate mode: Constant
Bit rate: 384 Kbps
Channel(s): 6 channels
Channel positions: Front: L C R, Side: L R, LFE
Sampling rate: 48.0 KHz
Bit depth: 16 bits
Compression mode: Lossy
Stream size: 263 MiB (17%)
Title: Dub
Language: Russian
Default: Yes
Forced: No








Поделиться:




реклама партнёра


Вернуться к началу
 Профиль Отправить личное сообщение  
 
   Похожие торренты   Автор   Торрент   Размер 
В этой теме нет новых непрочитанных сообщений. Американский герой / American Hero [фантастика, боевик, комедия, 2015] HDRip, Avo

salma3

4449 | 174

1.37 ГБ

В этой теме нет новых непрочитанных сообщений. Моцарт в джунглях / Mozart in the Jungle [1 сезон 1-10 серии из 10] (Пол Вайц) [комедия, музыка, 2014] WEBRip [AlexFilm]

Dracon

55 | 29

3.19 ГБ

В этой теме нет новых непрочитанных сообщений. Американский герой / American Hero (Ник Лав / Nick Love) [2015, Фантастика, боевик, комедия, HDRip] avo

Nickolas3435

257 | 10

1.2 ГБ

В этой теме нет новых непрочитанных сообщений. Моцарт в джунглях / Mozart in the Jungle [1 сезон 1-10 серии из 10] (Пол Вайц) [комедия, музыка, 2014] WEBRip 720p, Dvo+Sub [AlexFilm]

Dracon

22 | 11

7.69 ГБ

В этой теме нет новых непрочитанных сообщений. Американский террор / An American Terror [Ужасы, 2014] HDRip, Avo

salma3

95 | 21

757.26 МБ

В этой теме нет новых непрочитанных сообщений. Американский ниндзя / American Ninja [боевик, мелодрама, приключения, 1985] BDRip, Dvo [СТС]

salma3

58 | 6

1.46 ГБ

В этой теме нет новых непрочитанных сообщений. Американский ниндзя 3: Кровавая охота / American Ninja 3: Blood Hunt [боевик, драма, 1989] HDRip, Mvo [СТС]

salma3

36 | 12

1.45 ГБ


Начать новую тему Ответить на тему  [ 1 сообщение ] 




Для Мосгорсуда, Роскомнадзора и рекламодателей:: mosgorsud-torrent[собачка]yandex.ru