Торрент файл
скачать торрент магнет ссылка Добавлен: 01 апр 2012, 21:25
Размер: 2.18 ГБ
Сидеров: 109
Личеров: 11
Автор

СообщениеДобавлено: 01 апр 2012, 21:25 

Не в сети
Супермодератор
Аватара пользователя
Дата регистрации:
11 апр 2010, 18:10
Спасибо: 5801 / 7
Сообщения: 56779
Астероид / Asteroid

Перевод: Профессиональный (двухголосый)
Субтитры: Отсутствуют
Формат: DVDRip, MKV, H.264, AC3
Страна: США
Режиссер: Брэдфорд Мэй
Жанр: фантастика, боевик, триллер
Продолжительность: 02:02:38
Год выпуска: 1997
В ролях: Майкл Бьен, Аннабелла Шиорра, Захари Чарльз, Дон Франклин, Карлос Гомес, Майкл Уэтерли, Дженсен Даггетт, Энн-Мари Джонсон, Фрэнк МакРей, Дэнис Арндт
Описание: Доктор Макки, директор обсерватории в Колорадо, обнаруживает, что комета Флетчера отклонила от орбиты два огромных астероида, которые несутся к Земле. Ужаснейшая катастрофа в истории человечества приближается… со скоростью пятьдесят тысяч километров в час.
Астероид Гелиос должен упасть на западе Америки и взорваться с мощностью тысячи атомных бомб, вызвав сильные пожары и землетрясения. А вскоре за ним последует его более крупный собрат — Эрос.
Макки сообщает о приближающейся катастрофе директору Федерального агентства по чрезвычайным ситуациям Уоллаху. За 48 часов НАТО, Национальная гвардия, Военно — воздушные силы, Красный крест, полиция и пожарная охрана должны успеть подготовиться и дать отпор общему врагу — Астероиду.


Видео: 720x544 (4:3), 25,000 fps, MPEG4 AVC (х264), High@L4.1 ~2100 kbps avg, 0.214 bit/pixel
Аудио:48 kHz,AC-3, 6 ch, ~448.00 kbps avg


Автор РИПа:
Исходник: DVD9

Общее
Уникальный идентификатор : 197217422775555196241077212369080631267 (0x945EB1AA7F4D2DBA93699D5A81F53FE3)
Полное имя : f:\Downloads\asteroid_[tfile.ru].mkv
Формат : Matroska
Версия формата : Version 2
Размер файла : 2,18 Гбайт
Продолжительность : 2 ч. 2 м.
Общий поток : 2541 Кбит/сек
Дата кодирования : UTC 2012-03-10 01:49:21
Программа кодирования : mkvmerge v4.6.0 ('Still Crazy After All These Years') сборка от Mar 10 2011 02:50:32
Библиотека кодирования : libebml v1.2.0 + libmatroska v1.1.0

Видео
Идентификатор : 1
Формат : AVC
Формат/Информация : Advanced Video Codec
Профиль формата : High@L4.1
Параметр CABAC формата : Да
Параметр ReFrames формата : 3 кадра
Режим смешивания : Header stripping
Идентификатор кодека : V_MPEG4/ISO/AVC
Продолжительность : 2 ч. 2 м.
Битрейт : 2100 Кбит/сек
Ширина : 720 пикселей
Высота : 544 пикселя
Соотношение сторон : 4:3
Соотношение сторон в оригинале : 4:3
Режим частоты кадров : Переменный
Частота кадров : 25,000 кадров/сек
Цветовое пространство : YUV
Субдискретизация насыщенности : 4:2:0
Битовая глубина : 8 бит
Тип развёртки : MBAFF
Бит/(Пиксели*Кадры) : 0.214
Размер потока : 1,75 Гбайт (80%)
Библиотека кодирования : x264 core 116 r2019M 9cc407d
Настройки программы : cabac=1 / ref=3 / deblock=1:-1:-1 / analyse=0x3:0x133 / me=hex / subme=7 / psy=1 / psy_rd=1.00:0.15 / mixed_ref=1 / me_range=16 / chroma_me=1 / trellis=1 / 8x8dct=1 / cqm=0 / deadzone=21,11 / fast_pskip=1 / chroma_qp_offset=-3 / threads=8 / sliced_threads=0 / nr=0 / decimate=1 / interlaced=tff / bluray_compat=0 / constrained_intra=0 / bframes=3 / b_pyramid=1 / b_adapt=2 / b_bias=0 / direct=3 / weightb=1 / open_gop=0 / weightp=0 / keyint=250 / keyint_min=25 / scenecut=40 / intra_refresh=0 / rc_lookahead=40 / rc=abr / mbtree=1 / bitrate=2100 / ratetol=1.0 / qcomp=0.60 / qpmin=10 / qpmax=51 / qpstep=4 / vbv_maxrate=9000 / vbv_bufsize=1835 / nal_hrd=none / ip_ratio=1.40 / aq=1:1.00
Язык : English
Default : Да
Forced : Нет

Аудио
Идентификатор : 2
Формат : AC-3
Формат/Информация : Audio Coding 3
Расширение режима : CM (complete main)
Режим смешивания : Header stripping
Идентификатор кодека : A_AC3
Продолжительность : 2 ч. 2 м.
Вид битрейта : Постоянный
Битрейт : 448 Кбит/сек
Каналы : 6 каналов
Расположение каналов : Front: L C R, Side: L R, LFE
Частота : 48,0 КГц
Битовая глубина : 16 бит
Метод сжатия : С потерями
Размер потока : 393 Мбайт (18%)
Заголовок : DVD
Язык : Russian
Default : Да
Forced : Нет


















Поделиться:




реклама партнёра


Вернуться к началу
 Профиль Отправить личное сообщение  
 
   Похожие торренты   Автор   Торрент   Размер 
В этой теме нет новых непрочитанных сообщений. Каторжник 762 / Convict 762 [Фантастика, боевик, триллер, 1997] DVDRip, Mvo+Avo

salma3

115 | 9

1.46 ГБ

В этой теме нет новых непрочитанных сообщений. Asteroid Park - Asteroid Park [2013, Classic Rock,Hard Rock,Space Rock, MP3]

PriZraK

0 | 1

141.51 МБ

В этой теме нет новых непрочитанных сообщений. Колония / Double Team [Фантастика, боевик, триллер, комедия, 1997] Blu-Ray Remux 1080p, Dub+Mvo+Sub

salma3

39 | 6

15.37 ГБ

В этой теме нет новых непрочитанных сообщений. Провал во времени / Retroactive [фантастика, боевик, триллер, криминал, приключения, 1997] BDRemux 1080p. Mvo

salma3

1 | 2

27.29 ГБ

В этой теме нет новых непрочитанных сообщений. Провал во времени / Retroactive [Фантастика, триллер, 1997] DVDRip. Mvo+Dvo+Avo

salma3

36 | 5

1.93 ГБ

В этой теме нет новых непрочитанных сообщений. Смертельная битва. Дилогия / Mortal Kombat. Dilogy [фантастика, фэнтези, боевик, триллер, приключения, 1995, 1997] BDRip-AVC, Mvo

salma3

85 | 16

2.92 ГБ

В этой теме нет новых непрочитанных сообщений. Ночной убийца / Dead by Midnight [Фантастика, триллер, 1997] DVDRip, Dvo

salma3

8 | 2

1.47 ГБ


Начать новую тему Ответить на тему  [ 1 сообщение ] 




Для Мосгорсуда, Роскомнадзора и рекламодателей:: mosgorsud-torrent[собачка]yandex.ru