Торрент файл
скачать торрент магнет ссылка Добавлен: 01 апр 2012, 21:23
Размер: 2.1 ГБ
Сидеров: 349
Личеров: 18
Автор

СообщениеДобавлено: 01 апр 2012, 21:23 

Не в сети
Супермодератор
Аватара пользователя
Дата регистрации:
11 апр 2010, 18:10
Спасибо: 5801 / 7
Сообщения: 56779
Огнем и мечом / With Fire and Sword


Перевод: Профессиональный (многоголосый, закадровый), cубтитры: отсутствуют
Формат: HDRip-AVC, MKV, H.264, AC3
Страна: Польша
Режиссер: Ежи Гоффман
Жанр: драма, мелодрама, криминал, приключения, военный, история
Продолжительность: 02:55:11
Год выпуска: 1999

В ролях: Михал Жебровски, Изабелла Скорупко, Александр Домогаров, Богдан Ступка, Кшиштоф Ковалевский, Анджей Теодор Северин, Збигнев Замаховский, Виктор Зборовский, Войцек Малайкат, Эва Вишневска, Марек Кондрат, Руслана Писанка, Даниэль Ольбрыхский, Густав Холоубек, Анджей Копичиньский, Мацей Козловский, Адам Ференци, Густав Люткевич, Дмитрий Миргородский, Ежи Боньчак, Марек Цихуцкий, Рафал Цешиньский, Лех Дыблик, Кшиштоф Гоштыла, Анджей Гронзевич, Ежи Карашкевич, Лешек Телешиньский, Александр Высоцкий, Петр Бала, Томаш Грохочиньский, Пшемыслав Капса, Кшиштоф Артур Янчар, Томаш Конечны, Владислав Бараньский

Описание: XVII век. Речь Посполита объята огнем, спровоцированным ссорой православного полковника Богдана Хмельницкого с паном Чаплинским, который запорол насмерть сына полковника. Оскорбленный Хмельницкий поднял Запорожскую Сечь, призвал крымских татар под предводительством Туган-бея, разбил войска короля Владислава.
На фоне диких грабежей, погромов, грандиозных батальных сцен благородный шляхтич Скшетуский и жестокий казацкий атаман Богун добиваются любви красавицы-полячки…




Видео: 960 x 480 (2.00:1), 25.000 fps, AVC (х264) High@L4.1, ~ 1525 Kbps, 0.132 bit/pixel
Аудио: 48 kHz, AC3 Dolby Digital, 2/0 (L,R) ch, ~192 kbps avg


Рип: jeenart

Сюжет фильма основан на сюжете одноимённого романа (первой части «Трилогии») польского писателя Генрика Сенкевича. Действие фильма происходит на Украине во время восстания под предводительством Богдана Хмельницкого. Этот фильм считается наиболее высокобюджетным из всех польских фильмов снятых к тому времени (24 миллион злотых). Только фильм «Камо грядеши», снятый в 2001 году, превзошёл его по затратам.
XXIV фестиваль польских художественных фильмов в Гдыни, 1999
* Награда за монтаж (Мартин Бастковский, Цезарь Гшесиу), за сценографию (Анджей Халинский), за творческую экранизацию эпопеи Сенкевича, награда Председателя Управления Польского телевидения (Ежи Гофман) ().
Награды польских фильмов Орли, 2000
* Победитель — Лучшая женская роль второго плана — (Ева Вишневская)
*Победитель — Лучший продюсер — Ежи Михалюк, Ежи Гофман
Международный московский фестиваль славянских и православных фильмов — 1-я награда — (Ежи Гофман) (2000)
TP SA музыкальный и кинофестиваль -«награда Филиппа» в категории: оригинальная и адаптированная музыка в польском фильме — композитор Кшесимир Дебский (2000)
General
Unique ID: 205459025902577583057376435183949730510 (0x9A91F8128CA2814197F45A3C00EC52CE)
Complete name: F:\Мои релизы\Все релизы 10\ognem_i_mechom_[tfile.ru].mkv
Format: Matroska
File size: 2.10 GiB
Duration: 2h 55mn
Overall bit rate: 1 719 Kbps
Encoded date: UTC 2012-01-24 10:52:12
Writing application: mkvmerge v4.6.0 ('Still Crazy After All These Years') сборка от Apr1 2011 21:01:49
Writing library: libebml v1.2.0 + libmatroska v1.1.0

Video
ID: 1
Format: AVC
Format/Info: Advanced Video Codec
Format profile: High@L4.1
Format settings, CABAC: Yes
Format settings, ReFrames: 4 frames
Codec ID: V_MPEG4/ISO/AVC
Duration: 2h 55mn
Bit rate: 1 525 Kbps
Width: 960 pixels
Height: 480 pixels
Display aspect ratio: 2.000
Frame rate: 25.000 fps
Color space: YUV
Chroma subsampling: 4:2:0
Bit depth: 8 bits
Scan type: Progressive
Bits/(Pixel*Frame): 0.132
Stream size: 1.83 GiB (87%)
Writing library: x264 core 115 r1937 aa21558
Encoding settings: cabac=1 / ref=3 / deblock=1:-1:-1 / analyse=0x3:0x113 / me=hex / subme=7 / psy=1 / psy_rd=1.00:0.10 / mixed_ref=1 / me_range=16 / chroma_me=1 / trellis=1 / 8x8dct=1 / cqm=0 / deadzone=21,11 / fast_pskip=1 / chroma_qp_offset=-3 / threads=6 / sliced_threads=0 / nr=0 / decimate=1 / interlaced=0 / bluray_compat=0 / constrained_intra=0 / bframes=3 / b_pyramid=2 / b_adapt=1 / b_bias=0 / direct=3 / weightb=1 / open_gop=0 / weightp=2 / keyint=250 / keyint_min=25 / scenecut=40 / intra_refresh=0 / rc_lookahead=40 / rc=2pass / mbtree=1 / bitrate=1525 / ratetol=1.0 / qcomp=0.60 / qpmin=0 / qpmax=69 / qpstep=4 / cplxblur=20.0 / qblur=0.5 / ip_ratio=1.40 / aq=1:1.00

Audio
ID: 2
Format: AC-3
Format/Info: Audio Coding 3
Mode extension: CM (complete main)
Codec ID: A_AC3
Duration: 2h 55mn
Bit rate mode: Constant
Bit rate: 192 Kbps
Channel(s): 2 channels
Channel positions: Front: L R
Sampling rate: 48.0 KHz
Bit depth: 16 bits
Compression mode: Lossy
Stream size: 241 MiB (11%)



















Поделиться:




реклама партнёра


Вернуться к началу
 Профиль Отправить личное сообщение  
 
   Похожие торренты   Автор   Торрент   Размер 
В этой теме нет новых непрочитанных сообщений. Под огнем / Under Fire [Драма, военный, 1983] BDRip, Avo

salma3

15 | 26

2.17 ГБ

В этой теме нет новых непрочитанных сообщений. Крепость: щитом и мечом (Федор Дмитриев) [мультфильм, приключения, военный, 2015] HDRip [Лицензия]

Dracon

324 | 99

1.36 ГБ

В этой теме нет новых непрочитанных сообщений. Огнём и мечом 2: На Карибы! [ Action, RPG, 2015] [RePack]

Sykre

13 | 0

785.79 МБ

В этой теме нет новых непрочитанных сообщений. Они играют с огнём / They're Playing with Fire [триллер, криминал, 1984] DVDRip, Avo

salma3

3 | 3

1.4 ГБ

В этой теме нет новых непрочитанных сообщений. Испытание огнем / Trial by Fire [Драма, 2008] DVDRip, Mvo

salma3

32 | 2

1.46 ГБ

В этой теме нет новых непрочитанных сообщений. Крепость: щитом и мечом (Федор Дмитриев) [мультфильм, приключения, военный, 2015] BDRip 720p [Лицензия]

Dracon

74 | 48

3.73 ГБ

В этой теме нет новых непрочитанных сообщений. Крепость: щитом и мечом (Федор Дмитриев) [мультфильм, приключения, военный, 2015] BDRip 1080p [Лицензия]

Dracon

65 | 3

6.92 ГБ


Начать новую тему Ответить на тему  [ 1 сообщение ] 




Для Мосгорсуда, Роскомнадзора и рекламодателей:: mosgorsud-torrent[собачка]yandex.ru