Торрент файл
скачать торрент магнет ссылка Добавлен: 01 апр 2012, 21:22
Размер: 2.1 ГБ
Сидеров: 72
Личеров: 12
Автор

СообщениеДобавлено: 01 апр 2012, 21:22 

Не в сети
Супермодератор
Аватара пользователя
Дата регистрации:
11 апр 2010, 18:10
Спасибо: 5963 / 7
Сообщения: 56762
Новая Франция / Nouvelle-France


Перевод: Профессиональный (полное дублирование), cубтитры: английские на французскую речь
Формат: DVDRip-AVC, MKV, H.264, AC3
Страна: Канада, Франция, Великобритания
Режиссер: Жан Боден
Жанр: драма, мелодрама, военный, история
Продолжительность: 02:17:22
Год выпуска: 2004

В ролях: Ноэми Годен-Виньо, Давид Ла Эй, Джульетт Госселин, Жерар Депардье, Бьянка Джервис, Ирен Жакоб, Пьер ЛеБо, Венсан Перес, Изабель Рише

Описание: Эпическая история любви между отважной девушкой и охотником за приключениями.
1759 год. Франция борется с Англией за сохранение своих канадских территорий. Мари-Лу, молодая женщина из Новой Франции, влюбляется в Франсуа ле Гардера - мужчину, оказавшегося в центре интриг враждующих держав. Их страстная любовь и судьба теперь зависит от нескольких людей: кюре Блондо (Жерар Депардье), интенданта Биго (Венсан Перес), его любовницы Анжелики де Рокбрюн (Ирен Жакоб) и окруживших их заговоров, предательств и обманов...




Видео: 1024 x 568 (1.80:1), 25.000 fps, AVC (х264) High@L4.1, ~ 1807 Kbps, 0.124 bit/pixel
Аудио: 48 kHz, AC3 Dolby Digital, 3/2 (L,C,R,l,r) + LFE ch, ~ 384 kbps


Рип: jeenart

General
Unique ID: 221240198078881946550855250670360237460 (0xA6714FEED832BEC2801F1ED19DD49594)
Complete name: F:\Мои релизы\Все релизы 10\novaja_franciaj_[tfile.ru].mkv
Format: Matroska
File size: 2.10 GiB
Duration: 2h 17mn
Overall bit rate: 2 193 Kbps
Encoded date: UTC 2012-02-29 12:00:44
Writing application: mkvmerge v4.6.0 ('Still Crazy After All These Years') сборка от Apr1 2011 21:01:49
Writing library: libebml v1.2.0 + libmatroska v1.1.0

Video
ID: 1
Format: AVC
Format/Info: Advanced Video Codec
Format profile: High@L4.1
Format settings, CABAC: Yes
Format settings, ReFrames: 4 frames
Codec ID: V_MPEG4/ISO/AVC
Duration: 2h 17mn
Bit rate: 1 807 Kbps
Width: 1 024 pixels
Height: 568 pixels
Display aspect ratio: 16:9
Frame rate: 25.000 fps
Color space: YUV
Chroma subsampling: 4:2:0
Bit depth: 8 bits
Scan type: Progressive
Bits/(Pixel*Frame): 0.124
Stream size: 1.69 GiB (80%)
Writing library: x264 core 115 r1937 aa21558
Encoding settings: cabac=1 / ref=3 / deblock=1:-1:-1 / analyse=0x3:0x113 / me=hex / subme=7 / psy=1 / psy_rd=1.00:0.10 / mixed_ref=1 / me_range=16 / chroma_me=1 / trellis=1 / 8x8dct=1 / cqm=0 / deadzone=21,11 / fast_pskip=1 / chroma_qp_offset=-3 / threads=6 / sliced_threads=0 / nr=0 / decimate=1 / interlaced=0 / bluray_compat=0 / constrained_intra=0 / bframes=3 / b_pyramid=2 / b_adapt=1 / b_bias=0 / direct=3 / weightb=1 / open_gop=0 / weightp=2 / keyint=250 / keyint_min=25 / scenecut=40 / intra_refresh=0 / rc_lookahead=40 / rc=2pass / mbtree=1 / bitrate=1807 / ratetol=1.0 / qcomp=0.60 / qpmin=0 / qpmax=69 / qpstep=4 / cplxblur=20.0 / qblur=0.5 / ip_ratio=1.40 / aq=1:1.00

Audio
ID: 2
Format: AC-3
Format/Info: Audio Coding 3
Mode extension: CM (complete main)
Codec ID: A_AC3
Duration: 2h 17mn
Bit rate mode: Constant
Bit rate: 384 Kbps
Channel(s): 6 channels
Channel positions: Front: L C R, Side: L R, LFE
Sampling rate: 48.0 KHz
Bit depth: 16 bits
Compression mode: Lossy
Stream size: 377 MiB (18%)















Поделиться:




реклама партнёра


Вернуться к началу
 Профиль Отправить личное сообщение  
 
   Похожие торренты   Автор   Торрент   Размер 
В этой теме нет новых непрочитанных сообщений. Новая подружка / Une nouvelle amie (Франсуа Озон / François Ozon) [2014г., Франция, драма, BDRip 1080p] DUB

Alfredovich

1 | 4

8.08 ГБ

В этой теме нет новых непрочитанных сообщений. Вперед, Франция! / Allez France! [Комедия, 1964] DVDRip-AVC, Dub

salma3

92 | 13

2.36 ГБ

В этой теме нет новых непрочитанных сообщений. Сделано во Франции / Made in France (Николас Бухриф / Nicolas Boukhrief) [2015г., Франция, триллер, драма, криминал, HDRip] mvo

Alfredovich

1093 | 64

1.37 ГБ

В этой теме нет новых непрочитанных сообщений. Айк: Обратный отсчет / Ike: Countdown to D-Day [драма, военный, история, 2004] WEB-DLRip, Avo

salma3

28 | 2

1.46 ГБ

В этой теме нет новых непрочитанных сообщений. Настоящая женщина / True Women [драма, мелодрама, вестерн, военный, биография, история, 1997] DVDRip, Mvo

salma3

31 | 5

1.37 ГБ

В этой теме нет новых непрочитанных сообщений. Отель «Руанда» / Hotel Rwanda [драма, военный, история, 2004] BDRip-AVC, Mvo

salma3

18 | 10

1.45 ГБ

В этой теме нет новых непрочитанных сообщений. Отель «Руанда» / Hotel Rwanda [драма, военный, история, 2004] BDRip, Mvo

salma3

51 | 14

2.18 ГБ


Начать новую тему Ответить на тему  [ 1 сообщение ] 




Для Мосгорсуда, Роскомнадзора и рекламодателей:: mosgorsud-torrent[собачка]yandex.ru