Торрент файл
скачать торрент магнет ссылка Добавлен: 01 апр 2012, 21:20
Размер: 1.48 ГБ
Сидеров: 70
Личеров: 13
Автор

СообщениеДобавлено: 01 апр 2012, 21:20 

Не в сети
Супермодератор
Аватара пользователя
Дата регистрации:
11 апр 2010, 18:10
Спасибо: 5801 / 7
Сообщения: 56779
[b]Мост в Терабитию / Bridge to Terabithia[/b]


Перевод: Профессиональный (полное дублирование)
Субтитры: отсутствуют
Формат: HDRip-AVC, MKV, H.264, AC3

Страна: США

Режиссер: Габор Чупо
Жанр: фэнтези, драма, приключения, семейный
Продолжительность: 01:35:31
Год выпуска: 2007

В ролях: Джош Хатчерсон, Анна-Cофия Робб, Эрин Аннис, Тайлер Этфилд, Роберт Патрик, Микайла Баумель, Бенджамин Брайан, Катрина Серио, Лорен Клинтон, Брэндон Кук, Зои Дешанель.

Описание: Надежды ученика пятого класса Джесса Аарона стать самым быстрым бегуном в классе разбились после того, как новичок Лесли Берк одержала победу в соревнованиях.

Оснований для враждебности по отношению друг к друг у Джесса и Лесли более чем достаточно, и тем не менее между ними завязывается дружба. Как тут не подружиться, если приходится быть королем и королевой в обнаруженном в лесу волшебном царстве?




Видео: 1024x432 (2.35:1), 23.976 fps, AVC MPEG-4 High@L4.1 ~1860 kbps avg, 0.175 bit/pixel
Аудио: 48 kHz, AC3 Dolby Digital, 3/2 (L,C,R,l,r) + LFE ch, ~384 kbps avg

Рип от: S.I.D 'a[/url]


General
Unique ID: 229691591866571257474357847031282817548 (0xACCCFDD14DE6712C98953969B8525A0C)
Complete name: F:\Рипы от папы Карло\Мост\Most.v.Terabitiu.2007.D.HDRip.mkv
Format: Matroska
Format version: Version 2
File size: 1.48 GiB
Duration: 1h 35mn
Overall bit rate: 2 226 Kbps
Movie name: Bridge.to.Terabithia.S.I.D
Encoded date: UTC 2012-01-17 20:25:08
Writing application: mkvmerge v2.9.8 ('C'est le bon') built on Aug 13 2009 12:49:06
Writing library: libebml v0.7.7 + libmatroska v0.8.1

Video
ID: 1
Format: AVC
Format/Info: Advanced Video Codec
Format profile: High@L4.1
Format settings, CABAC: Yes
Format settings, ReFrames: 8 frames
Codec ID: V_MPEG4/ISO/AVC
Duration: 1h 35mn
Bit rate: 1 860 Kbps
Width: 1 024 pixels
Height: 432 pixels
Display aspect ratio: 2.35:1
Frame rate: 23.976 fps
Color space: YUV
Chroma subsampling: 4:2:0
Bit depth: 8 bits
Scan type: Progressive
Bits/(Pixel*Frame): 0.175
Stream size: 1.20 GiB (81%)
Writing library: x264 core 119 r2106 07efeb4
Encoding settings: cabac=1 / ref=8 / deblock=1:-1:-1 / analyse=0x3:0x131 / me=umh / subme=0 / psy=1 / psy_rd=1.00:0.10 / mixed_ref=1 / me_range=16 / chroma_me=1 / trellis=2 / 8x8dct=1 / cqm=0 / deadzone=21,11 / fast_pskip=0 / chroma_qp_offset=-1 / threads=6 / sliced_threads=0 / nr=0 / decimate=1 / interlaced=0 / bluray_compat=0 / constrained_intra=0 / bframes=4 / b_pyramid=2 / b_adapt=2 / b_bias=0 / direct=1 / weightb=1 / open_gop=0 / weightp=2 / keyint=250 / keyint_min=23 / scenecut=40 / intra_refresh=0 / rc_lookahead=50 / rc=abr / mbtree=1 / bitrate=1860 / ratetol=1.0 / qcomp=0.60 / qpmin=0 / qpmax=69 / qpstep=4 / ip_ratio=1.40 / aq=1:1.00
Language: Finnish
Default: Yes
Forced: No

Audio
ID: 2
Format: AC-3
Format/Info: Audio Coding 3
Mode extension: CM (complete main)
Codec ID: A_AC3
Duration: 1h 35mn
Bit rate mode: Constant
Bit rate: 384 Kbps
Channel(s): 6 channels
Channel positions: Front: L C R, Side: L R, LFE
Sampling rate: 48.0 KHz
Bit depth: 16 bits
Compression mode: Lossy
Stream size: 262 MiB (17%)
Title: дублирование
Language: Russian
Default: Yes
Forced: No








Поделиться:




реклама партнёра


Вернуться к началу
 Профиль Отправить личное сообщение  
 
   Похожие торренты   Автор   Торрент   Размер 
В этой теме нет новых непрочитанных сообщений. Шпионский мост / Bridge of Spies [триллер, драма, биография, история, 2015] HDRip-AVC, dub [iTunes]

Dracon

69 | 3

2.26 ГБ

В этой теме нет новых непрочитанных сообщений. Шпионский мост / Bridge of Spies [триллер, драма, биография, история, 2015] HDRip, dub [iTunes]

yurban

53 | 8

2.73 ГБ

В этой теме нет новых непрочитанных сообщений. Шпионский мост / Bridge of Spies [триллер, драма, биография, история, 2015] HDRip, dub [iTunes]

Dracon

250 | 8

2.05 ГБ

В этой теме нет новых непрочитанных сообщений. Шпионский мост / Bridge of Spies [триллер, драма, биография, история, 2015] HDRip, dub [лицензия]

Dracon

1431 | 77

1.45 ГБ

В этой теме нет новых непрочитанных сообщений. Лондонский Мост / London Bridge [Драма, мелодрама, 2014] DVDRip, Sub

salma3

36 | 7

1.63 ГБ

В этой теме нет новых непрочитанных сообщений. Шпионский мост / Bridge of Spies [триллер, драма, история, 2015] BDRip 720p, Dub+avo [Лицензия]

marya111

0 | 0

7.96 ГБ

В этой теме нет новых непрочитанных сообщений. Шпионский мост / Bridge of Spies [триллер, драма, биография, история, 2015] BDRip 1080p, Dub+Sub [iTunes]

Dracon

143 | 16

16.32 ГБ


Начать новую тему Ответить на тему  [ 1 сообщение ] 




Для Мосгорсуда, Роскомнадзора и рекламодателей:: mosgorsud-torrent[собачка]yandex.ru
cron