Торрент файл
скачать торрент магнет ссылка Добавлен: 01 апр 2012, 21:15
Размер: 2.18 ГБ
Сидеров: 91
Личеров: 8
Автор

СообщениеДобавлено: 01 апр 2012, 21:15 

Не в сети
Супермодератор
Аватара пользователя
Дата регистрации:
11 апр 2010, 18:10
Спасибо: 5801 / 7
Сообщения: 56779
Готова на всё / Malice



Перевод: Профессиональный (двухголосый)
Cубтитры: Русские, Английские (отдельно)
Формат: HDTVRip, AVI, XviD, AC3
Страна: США, Канада
Режиссер: Харольд Беккер
Жанр: триллер, криминал, детектив
Продолжительность: 01:46:32
Год выпуска: 1993

В ролях: Алек Болдуин, Николь Кидман, Билл Пуллман, Биби Нойуэрт, Джордж К. Скотт, Энн Бэнкрофт, Питер Галлахер, Йозеф Зоммер, Тобин Белл, Уильям Дафф-Гриффин.

Описание: Энди Сафиан преподает в колледже и счастлив в браке с красавицей-женой Трейси. Но случай сводит их с преуспевающим хирургом Джедом, который постепенно вовлекает их в в запутанный узел интриг и предательства.



Видео: 720x400 (1.80:1), 23.976 fps, XviD build 50 ~2249 kbps avg, 0.33 bit/pixel
Аудио: #1: Русский 48 kHz, AC3 Dolby Digital, 2/0 (L,R) ch, ~224 kbps [Профессиональный (двухголосый)]
Аудио: #2: Русский 48 kHz, AC3 Dolby Digital, 2/0 (L,R) ch, ~224 kbps [А. Гаврилов]
Аудио: #3: Английский 48 kHz, AC3 Dolby Digital, 2/0 (L,R) ch, ~224 kbps [Оригинальная дорожка]
Общее
Полное имя: G:\Malice\Gotova.na.vse..avi
Формат: AVI
Формат/Информация: Audio Video Interleave
Профиль формата: OpenDML
Размер файла: 2,18 Гбайт
Продолжительность: 1 ч. 46 м.
Общий поток: 2929 Кбит/сек
Программа кодирования: VirtualDubModRus 1.5.10.2 (build 2542/release)
Библиотека кодирования: VirtualDubMod build 2542/release

Видео
Идентификатор: 0
Формат: MPEG-4 Visual
Профиль формата: Advanced Simple@L5
Параметр BVOP формата: 1
Параметр QPel формата: Нет
Параметр GMC формата: Без точки перехода
Параметр матрицы формата: Выборочная
Идентификатор кодека: XVID
Идентификатор кодека/Подсказка: XviD
Продолжительность: 1 ч. 46 м.
Битрейт: 2233 Кбит/сек
Ширина: 720 пикселей
Высота: 400 пикселей
Соотношение сторон: 16:9
Частота кадров: 23,976 кадра/сек
Цветовое пространство: YUV
Субдискретизация насыщенности: 4:2:0
Битовая глубина: 8 бит
Тип развёртки: Прогрессивная
Метод сжатия: С потерями
Бит/(Пиксели*Кадры): 0.323
Размер потока: 1,66 Гбайт (76%)
Библиотека кодирования: XviD 1.2.1 (UTC 2008-12-04)

Аудио #1
Идентификатор: 1
Формат: AC-3
Формат/Информация: Audio Coding 3
Расширение режима: CM (complete main)
Идентификатор кодека: 2000
Продолжительность: 1 ч. 46 м.
Вид битрейта: Постоянный
Битрейт: 224 Кбит/сек
Каналы: 2 канала
Расположение каналов: Front: L R
Частота: 48,0 КГц
Битовая глубина: 16 бит
Метод сжатия: С потерями
Размер потока: 171 Мбайт (8%)
Выравнивание: Разделение по промежуткам
Продолжительность промежутка: 42мс. (1,00 видеокадр)
Время предзагрузки промежутка: 500мс.

Аудио #2
Идентификатор: 2
Формат: AC-3
Формат/Информация: Audio Coding 3
Расширение режима: CM (complete main)
Идентификатор кодека: 2000
Продолжительность: 1 ч. 46 м.
Вид битрейта: Постоянный
Битрейт: 224 Кбит/сек
Каналы: 2 канала
Расположение каналов: Front: L R
Частота: 48,0 КГц
Битовая глубина: 16 бит
Метод сжатия: С потерями
Размер потока: 171 Мбайт (8%)
Выравнивание: Разделение по промежуткам
Продолжительность промежутка: 42мс. (1,00 видеокадр)
Время предзагрузки промежутка: 500мс.

Аудио #3
Идентификатор: 3
Формат: AC-3
Формат/Информация: Audio Coding 3
Расширение режима: CM (complete main)
Идентификатор кодека: 2000
Продолжительность: 1 ч. 46 м.
Вид битрейта: Постоянный
Битрейт: 224 Кбит/сек
Каналы: 2 канала
Расположение каналов: Front: L R
Частота: 48,0 КГц
Битовая глубина: 16 бит
Метод сжатия: С потерями
Размер потока: 171 Мбайт (8%)
Выравнивание: Разделение по промежуткам
Продолжительность промежутка: 42мс. (1,00 видеокадр)
Время предзагрузки промежутка: 500мс.














Поделиться:




реклама партнёра


Вернуться к началу
 Профиль Отправить личное сообщение  
 
   Похожие торренты   Автор   Торрент   Размер 
В этой теме нет новых непрочитанных сообщений. Готова на всё / Malice [триллер, криминал, детектив, 1993] BDRip 720p, 3Dvo+Avo+Sub

salma3

71 | 10

4.27 ГБ

В этой теме нет новых непрочитанных сообщений. Готова на всё / Malice [Триллер, криминал, детектив, 1993] BDRip 1080p, 5Dvo+Avo+Sub

salma3

90 | 23

7.71 ГБ

В этой теме нет новых непрочитанных сообщений. Ну че готова ты или не готова [2016 г., Amateur, Homemade, All Sex, CamRip]

Dievas

16 | 3

592.74 МБ

В этой теме нет новых непрочитанных сообщений. Правило номер 3 / Каталы / Rule No. 3 [Триллер, Детектив, Криминал, 1993] VHSRip, Avo

salma3

4 | 1

1.5 ГБ

В этой теме нет новых непрочитанных сообщений. На расстоянии удара / Striking Distance [Боевик, триллер, криминал, детектив, 1993] BDRip, Mvo

salma3

12 | 0

1.48 ГБ

В этой теме нет новых непрочитанных сообщений. Избиение младенцев / Slaughter Of The Innocents [ужасы, триллер, криминал, детектив, 1993] BDRip, Avo

salma3

1 | 2

1.43 ГБ

В этой теме нет новых непрочитанных сообщений. Избиение младенцев / Slaughter of the Innocents [ужасы, триллер, криминал, детектив, 1993] BDRip 720p, Avo

salma3

32 | 7

6.19 ГБ


Начать новую тему Ответить на тему  [ 1 сообщение ] 




Для Мосгорсуда, Роскомнадзора и рекламодателей:: mosgorsud-torrent[собачка]yandex.ru