Торрент файл
скачать торрент магнет ссылка Добавлен: 01 апр 2012, 21:15
Размер: 746.07 МБ
Сидеров: 175
Личеров: 13
Автор

СообщениеДобавлено: 01 апр 2012, 21:15 

Не в сети
Супермодератор
Аватара пользователя
Дата регистрации:
11 апр 2010, 18:10
Спасибо: 5802 / 7
Сообщения: 56779
Призрак / The Ghost Writer


Перевод: Профессиональный (полное дублирование), cубтитры: отсутствуют
Формат: LowHDRip-AVC, MKV, H.264, MP3
Страна: Германия, Франция, Великобритания
Режиссер: Роман Полански
Жанр: триллер, детектив
Продолжительность: 02:08:29
Год выпуска: 2010

В ролях: Юэн МакГрегор, Джон Бернтал, Ким Кэтролл, Пирс Броснан, Тим Прис, Джеймс Белуши, Оливия Уильямс, Тимоти Хаттон, Анна Боттинг, Том Уилкинсон

Описание: «Призраками пера» зовут в издательском мире «литературных негров». Их жизнь и муки творчества неизвестны никому, но результаты их трудов становятся бестселлерами.
Один из них погибает таинственной смертью как раз накануне сдачи будущего хита продаж, мемуаров бывшего премьер-министра Великобритании Адама Лэнга. Чтобы завершить «труд» политика, издательство нанимает Призрака-профессионала. Но педантичный и обычно успешный Призрак даже не представлял, что задача написать мемуары — из числа смертельно опасных, когда в биографии твоего героя — сплошь и рядом белые пятна, подозрительно напоминающие реальные государственные тайны




Видео: 720 x 304 (2.35:1), 23.976 fps, AVC (х264) High@L4.1, ~ 682 Kbps, 0.130 bit/pixel
Аудио: 48 kHz, MPEG Layer 3, 2 ch, ~128.00 kbps avg


Рип: jeenart





General
Unique ID: 235872292637068539481543985072797799119 (0xB17359E494695A9BAD8ACA50ECFE52CF)
Complete name: F:\Мои релизы\Все релизы 10\prizhrak_[tfile.ru].mkv
Format: Matroska
File size: 746 MiB
Duration: 2h 8mn
Overall bit rate: 812 Kbps
Encoded date: UTC 2012-03-09 20:11:44
Writing application: mkvmerge v4.6.0 ('Still Crazy After All These Years') сборка от Apr1 2011 21:01:49
Writing library: libebml v1.2.0 + libmatroska v1.1.0

Video
ID: 1
Format: AVC
Format/Info: Advanced Video Codec
Format profile: High@L4.1
Format settings, CABAC: Yes
Format settings, ReFrames: 4 frames
Codec ID: V_MPEG4/ISO/AVC
Duration: 2h 8mn
Bit rate: 682 Kbps
Width: 720 pixels
Height: 304 pixels
Display aspect ratio: 2.35:1
Frame rate: 23.976 fps
Color space: YUV
Chroma subsampling: 4:2:0
Bit depth: 8 bits
Scan type: Progressive
Bits/(Pixel*Frame): 0.130
Stream size: 614 MiB (82%)
Writing library: x264 core 115 r1937 aa21558
Encoding settings: cabac=1 / ref=3 / deblock=1:-1:-1 / analyse=0x3:0x113 / me=hex / subme=7 / psy=1 / psy_rd=1.00:0.10 / mixed_ref=1 / me_range=16 / chroma_me=1 / trellis=1 / 8x8dct=1 / cqm=0 / deadzone=21,11 / fast_pskip=1 / chroma_qp_offset=-3 / threads=6 / sliced_threads=0 / nr=0 / decimate=1 / interlaced=0 / bluray_compat=0 / constrained_intra=0 / bframes=3 / b_pyramid=2 / b_adapt=1 / b_bias=0 / direct=3 / weightb=1 / open_gop=0 / weightp=2 / keyint=250 / keyint_min=23 / scenecut=40 / intra_refresh=0 / rc_lookahead=40 / rc=2pass / mbtree=1 / bitrate=682 / ratetol=1.0 / qcomp=0.60 / qpmin=0 / qpmax=69 / qpstep=4 / cplxblur=20.0 / qblur=0.5 / ip_ratio=1.40 / aq=1:1.00

Audio
ID: 2
Format: MPEG Audio
Format version: Version 1
Format profile: Layer 3
Mode: Joint stereo
Mode extension: MS Stereo
Codec ID: A_MPEG/L3
Codec ID/Hint: MP3
Duration: 2h 8mn
Bit rate mode: Constant
Bit rate: 128 Kbps
Channel(s): 2 channels
Sampling rate: 48.0 KHz
Compression mode: Lossy
Stream size: 118 MiB (16%)
Writing library: LAME3.98r
Encoding settings: -m j -V 4 -q 2 -lowpass 17 -b 128















Поделиться:




реклама партнёра


Вернуться к началу
 Профиль Отправить личное сообщение  
 
   Похожие торренты   Автор   Торрент   Размер 
В этой теме нет новых непрочитанных сообщений. Призрак и Тьма / The Ghost and the Darkness [триллер, приключения, драма, 1996] HDTVRip, Mvo

salma3

22 | 4

1.47 ГБ

В этой теме нет новых непрочитанных сообщений. Призрак невесты / Ghost Bride (Дэвид Блит) [Фэнтези, триллер, 2013] HDTVRip, Mvo

Dracon

5 | 3

1.38 ГБ

В этой теме нет новых непрочитанных сообщений. Призрак в машине / Ghost in the Machine [ужасы, фантастика, триллер, 1993] DVDRip, Mvo [1 канал]

salma3

7 | 2

1.33 ГБ

В этой теме нет новых непрочитанных сообщений. Призрак невесты / Ghost Bride (Дэвид Блит) [Фэнтези, триллер, 2013] HDTVRip, Mvo 1080p

Dracon

4 | 4

2.91 ГБ

В этой теме нет новых непрочитанных сообщений. Призрак и Тьма / The Ghost and the Darkness [ужасы, триллер, драма, приключения, 1996] BDRip 720p, Mvo

salma3

48 | 16

8.81 ГБ

В этой теме нет новых непрочитанных сообщений. Потревоженный / Яхта-призрак / Alarmed / Ghost boat (Matt Lofgren) [ужасы, триллер, 2014] HDRip, dvo

Dracon

1749 | 150

1.45 ГБ

В этой теме нет новых непрочитанных сообщений. Акула-призрак / Ghost Shark [ужасы, фантастика, 2013] HDRip, Mvo

salma3

237 | 15

1.37 ГБ


Начать новую тему Ответить на тему  [ 1 сообщение ] 




Для Мосгорсуда, Роскомнадзора и рекламодателей:: mosgorsud-torrent[собачка]yandex.ru