Торрент файл
скачать торрент магнет ссылка Добавлен: 01 апр 2012, 21:15
Размер: 746.1 МБ
Сидеров: 302
Личеров: 25
Автор

СообщениеДобавлено: 01 апр 2012, 21:15 

Не в сети
Супермодератор
Аватара пользователя
Дата регистрации:
11 апр 2010, 18:10
Спасибо: 5802 / 7
Сообщения: 56779
Не говори никому / Ne le dis a personne


Перевод: Профессиональный (полное дублирование), cубтитры: отсутствуют
Формат: LowHDRip-AVC, MKV, H.264, MP3
Страна: Франция
Режиссер: Гийом Кане
Жанр: триллер, драма, криминал, детектив
Продолжительность: 02:10:56
Год выпуска: 2006

В ролях: Франсуа Клюзе, Мари-Жозе Крозе, Андре Дюссолье, Кристин Скотт Томас, Франсуа Берлеан, Натали Бэй, Жан Рошфор, Марина Хандз, Жиль Лелуш, Филипп Лефевр, Флоранс Томассен, Оливье Маршаль, Гийом Кане, Брижит Катийон, Самир Гесми

Описание: Восемь лет назад Марго Бек погибла от рук серийного убийцы. Однако после поимки маньяк признал за собой лишь восемь убийств — свое отношение к смерти Марго он всячески отрицал. Но определенные улики, найденные на теле жертвы, позволили обвинить его и в убийстве Марго. Муж убитой, Александр Бек, до сих пор не может оправиться после гибели жены. Он спасается от пагубных мыслей, с головой погрузившись в свою работу, а дружба с Элен Перкинс не дает ему полностью потерять связь с миром. Но когда рядом с тем местом, где было обнаружено тело Марго, находят еще два трупа и появляются новые улики, полиция возобновляет расследование. В то же время Александр получает по электронной почте странное письмо, в котором содержится ссылка на веб-камеру и указано время, когда камера начинает работать.



Видео: 720 x 304 (2.35:1), 24.000 fps, AVC (х264), High@L4.1, ~ 667 Kbps, 0.127 bit/pixel
Аудио: 48 kHz, MPEG Layer 3, 2 ch, ~128.00 kbps avg


Рип: jeenart

    «Не говори никому» из тех редких фильмов, которые смотрятся на одном дыхании. Это отличный французский детектив, где просто нет ничего лишнего. Актерская игра, закрученный сюжет, монтаж, режиссура, музыка — всё на высоте.

    Гийом Кане сделал прекрасную экранизацию книги Харлана Кобена, из под пера которого выходило множество мировых бестселлеров детективного жанра. Ему удалось создать ту атмосферу мистики, которая держит в напряжении до конца фильма.

    Кроме красивой картинки и детективного сюжета, особо стоит отметить актерский состав данной картины. Во время просмотра которой кажется, что здесь собран весь цвет французского кино. Натали Бэй, Жан Рошфор, Франсуа Берлеан, Оливье Маршаль, Андре Дюссолье и тд. Все они уже давно стали мастерами своего дела.

    Конечно стоит отметить Франсуа Клюзе и Гийома Кане, получивших за свою работу премию Сезар. Фильм так же был отмечен Сезарами, за монтаж и музыку. Жаль только, что Мари-Жозе Кроз ничего не получила. Она была хороша…

    10 из 10
le battant
General
Unique ID: 178398927526418166682126134943591712807 (0x8636623757D9C4F5A9D94709B8B44827)
Complete name: F:\Мои релизы\Все релизы 10\ne_govori_nikomu_[tfile.ru].mkv
Format: Matroska
File size: 746 MiB
Duration: 2h 10mn
Overall bit rate: 797 Kbps
Encoded date: UTC 2012-03-29 14:59:31
Writing application: mkvmerge v4.6.0 ('Still Crazy After All These Years') сборка от Apr1 2011 21:01:49
Writing library: libebml v1.2.0 + libmatroska v1.1.0

Video
ID: 1
Format: AVC
Format/Info: Advanced Video Codec
Format profile: High@L4.1
Format settings, CABAC: Yes
Format settings, ReFrames: 4 frames
Codec ID: V_MPEG4/ISO/AVC
Duration: 2h 10mn
Bit rate: 667 Kbps
Width: 720 pixels
Height: 304 pixels
Display aspect ratio: 2.35:1
Frame rate: 24.000 fps
Color space: YUV
Chroma subsampling: 4:2:0
Bit depth: 8 bits
Scan type: Progressive
Bits/(Pixel*Frame): 0.127
Stream size: 611 MiB (82%)
Writing library: x264 core 115 r1937 aa21558
Encoding settings: cabac=1 / ref=3 / deblock=1:-1:-1 / analyse=0x3:0x113 / me=hex / subme=7 / psy=1 / psy_rd=1.00:0.10 / mixed_ref=1 / me_range=16 / chroma_me=1 / trellis=1 / 8x8dct=1 / cqm=0 / deadzone=21,11 / fast_pskip=1 / chroma_qp_offset=-3 / threads=6 / sliced_threads=0 / nr=0 / decimate=1 / interlaced=0 / bluray_compat=0 / constrained_intra=0 / bframes=3 / b_pyramid=2 / b_adapt=1 / b_bias=0 / direct=3 / weightb=1 / open_gop=0 / weightp=2 / keyint=250 / keyint_min=23 / scenecut=40 / intra_refresh=0 / rc_lookahead=40 / rc=2pass / mbtree=1 / bitrate=667 / ratetol=1.0 / qcomp=0.60 / qpmin=0 / qpmax=69 / qpstep=4 / cplxblur=20.0 / qblur=0.5 / ip_ratio=1.40 / aq=1:1.00

Audio
ID: 2
Format: MPEG Audio
Format version: Version 1
Format profile: Layer 3
Mode: Joint stereo
Mode extension: MS Stereo
Codec ID: A_MPEG/L3
Codec ID/Hint: MP3
Duration: 2h 10mn
Bit rate mode: Constant
Bit rate: 128 Kbps
Channel(s): 2 channels
Sampling rate: 48.0 KHz
Compression mode: Lossy
Stream size: 120 MiB (16%)
Writing library: LAME3.98r
Encoding settings: -m j -V 4 -q 2 -lowpass 17 -b 128















Поделиться:




реклама партнёра


Вернуться к началу
 Профиль Отправить личное сообщение  
 
   Похожие торренты   Автор   Торрент   Размер 
В этой теме нет новых непрочитанных сообщений. Не говори ни слова / Don't Say a Word [Триллер, драма, криминал, 2001] Blu-ray Remux 1080p, Dub+Mvo+Sub

salma3

33 | 9

37.54 ГБ

В этой теме нет новых непрочитанных сообщений. Никому не известный / Un illustre inconnu (Матьё Делапорт / Mathieu Delaporte) [2014г., Франция, драма, триллер, HDTVRip] sub

Alfredovich

0 | 0

1.34 ГБ

В этой теме нет новых непрочитанных сообщений. Удар по системе / Shock to the System [триллер, драма, криминал, детектив, 2006] HDTVRip, Dvo [НТВ+]

salma3

129 | 10

1.35 ГБ

В этой теме нет новых непрочитанных сообщений. Мыслить как преступник / Criminal Minds [S02] [драма, криминал, детектив, триллер, 2006-2007] WEB-DL 720p, Dvo [ДТВ]

salma3

6 | 11

32.86 ГБ

В этой теме нет новых непрочитанных сообщений. Мыслить как преступник / Criminal Minds [S01] [драма, криминал, детектив, триллер, 2005-2006] WEB-DL 720p, Dvo [ДТВ]

salma3

67 | 39

30.97 ГБ

В этой теме нет новых непрочитанных сообщений. Декстер / Dexter [seasons 1-5, episode's 1-60] (Майкл Куэста, Тони Голдуин, Кейт Гордон, Маркос Сига, Тим Хантер) [Триллер, драма, криминал, детектив, 2006-2010] HDTVRip, Mvo

Dracon

2 | 3

24.22 ГБ

В этой теме нет новых непрочитанных сообщений. Читая мысли / Like minds [ужасы, триллер, криминал, детектив, 2006] DVDRip, Mvo

salma3

137 | 12

1.37 ГБ


Начать новую тему Ответить на тему  [ 1 сообщение ] 




Для Мосгорсуда, Роскомнадзора и рекламодателей:: mosgorsud-torrent[собачка]yandex.ru