Торрент файл
скачать торрент магнет ссылка Добавлен: 01 апр 2012, 20:52
Размер: 1.49 ГБ
Сидеров: 75
Личеров: 5
Автор

СообщениеДобавлено: 01 апр 2012, 20:52 

Не в сети
Супермодератор
Аватара пользователя
Дата регистрации:
11 апр 2010, 18:10
Спасибо: 5802 / 7
Сообщения: 56779
[b]То лето страсти / Un ete brulant[/b]


Перевод: Профессиональный (многоголосый закадровый)
Субтитры: отсутствуют
Формат: DVDRip-AVC, MKV, H.264, AC3

Страна:Франция, Италия, Швейцария

Режиссер: Филипп Гаррель
Жанр: драма
Продолжительность: 01:31:15
Год выпуска: 2011

В ролях: Моника Беллуччи, Луи Гаррель, Селин Саллетт, Жером Робар, Морис Гаррель.

Описание: Художник страдает после того, как его жена, актриса, покинула его. Герой нашёл свой выход: самоубийство в автокатастрофе, и теперь, оглядываясь назад, вспоминает о бурных страстях, ярких и настоящих чувствах, которые сопутствовали роману с его бывшей.



Видео: 1024x432 (2.35:1), 25 fps, AVC MPEG-4 High@L4.1 ~1569 kbps avg, 0.142 bit/pixel
Аудио #1: русский48 kHz, AC3 Dolby Digital, 3/2 (L,C,R,l,r) + LFE ch, ~384 kbps avg [Профессиональный (многоголосый закадровый)]
Аудио #2: французкий48 kHz, AC3 Dolby Digital, 3/2 (L,C,R,l,r) + LFE ch, ~384 kbps avg [оригинал]

Рип от: S.I.D 'a[/url]


General
Unique ID: 202238955645219996513917015670521849737 (0x9825CE59F099ABC6A68E304367CFE789)
Complete name: F:\Рипы от папы Карло\To.leto.strasti.2011.P.DVDRip.mkv
Format: Matroska
Format version: Version 2
File size: 1.49 GiB
Duration: 1h 31mn
Overall bit rate: 2 338 Kbps
Movie name: Un.ete.brulant.S.I.D
Encoded date: UTC 2012-01-18 19:52:04
Writing application: mkvmerge v2.9.8 ('C'est le bon') built on Aug 13 2009 12:49:06
Writing library: libebml v0.7.7 + libmatroska v0.8.1

Video
ID: 1
Format: AVC
Format/Info: Advanced Video Codec
Format profile: High@L4.1
Format settings, CABAC: Yes
Format settings, ReFrames: 8 frames
Codec ID: V_MPEG4/ISO/AVC
Duration: 1h 31mn
Bit rate: 1 569 Kbps
Width: 1 024 pixels
Height: 432 pixels
Display aspect ratio: 2.35:1
Frame rate: 25.000 fps
Color space: YUV
Chroma subsampling: 4:2:0
Bit depth: 8 bits
Scan type: Progressive
Bits/(Pixel*Frame): 0.142
Stream size: 994 MiB (65%)
Writing library: x264 core 119 r2106 07efeb4
Encoding settings: cabac=1 / ref=8 / deblock=1:-1:-1 / analyse=0x3:0x131 / me=umh / subme=0 / psy=1 / psy_rd=1.00:0.10 / mixed_ref=1 / me_range=16 / chroma_me=1 / trellis=2 / 8x8dct=1 / cqm=0 / deadzone=21,11 / fast_pskip=0 / chroma_qp_offset=-1 / threads=6 / sliced_threads=0 / nr=0 / decimate=1 / interlaced=0 / bluray_compat=0 / constrained_intra=0 / bframes=3 / b_pyramid=2 / b_adapt=2 / b_bias=0 / direct=1 / weightb=1 / open_gop=0 / weightp=2 / keyint=250 / keyint_min=25 / scenecut=40 / intra_refresh=0 / rc_lookahead=40 / rc=abr / mbtree=1 / bitrate=1569 / ratetol=1.0 / qcomp=0.60 / qpmin=0 / qpmax=69 / qpstep=4 / ip_ratio=1.40 / aq=1:1.00
Language: French
Default: Yes
Forced: No

Audio #1
ID: 2
Format: AC-3
Format/Info: Audio Coding 3
Mode extension: CM (complete main)
Codec ID: A_AC3
Duration: 1h 31mn
Bit rate mode: Constant
Bit rate: 384 Kbps
Channel(s): 6 channels
Channel positions: Front: L C R, Side: L R, LFE
Sampling rate: 48.0 KHz
Bit depth: 16 bits
Compression mode: Lossy
Stream size: 251 MiB (16%)
Title: многоголосый
Language: Russian
Default: Yes
Forced: No

Audio #2
ID: 3
Format: AC-3
Format/Info: Audio Coding 3
Mode extension: CM (complete main)
Codec ID: A_AC3
Duration: 1h 31mn
Bit rate mode: Constant
Bit rate: 384 Kbps
Channel(s): 6 channels
Channel positions: Front: L C R, Side: L R, LFE
Sampling rate: 48.0 KHz
Bit depth: 16 bits
Compression mode: Lossy
Stream size: 251 MiB (16%)
Title: оригинал
Language: French
Default: No
Forced: No








Поделиться:




реклама партнёра


Вернуться к началу
 Профиль Отправить личное сообщение  
 
   Похожие торренты   Автор   Торрент   Размер 
В этой теме нет новых непрочитанных сообщений. Постоянные любовники / Les amants réguliers (Филипп Гаррель / Philippe Garrel) [2004г., Франция, драма, артхаус, DVDRip] MVO

Alfredovich

4 | 1

2.75 ГБ

В этой теме нет новых непрочитанных сообщений. В одно прекрасное лето / Лето на ранчо Койот / Coyote Summer [мелодрама, приключения, семейный, 1995] DVDRip, Avo

salma3

25 | 7

1.46 ГБ

В этой теме нет новых непрочитанных сообщений. С вещами на вылет! / Débarquement immédiat! (Филипп де Шоврон) [2016, Филипп де Шоврон, WEB-DLRip | iTunes] Dub

marya111

861 | 25

746.43 МБ

В этой теме нет новых непрочитанных сообщений. Волна страсти / In God's Hands [драма, боевик, спорт, 1998] DVDRip, Mvo

salma3

12 | 2

1.46 ГБ

В этой теме нет новых непрочитанных сообщений. Жрица страсти / Woman of Desire [драма, триллер, 1993] DVDRip, Avo

salma3

506 | 16

1.37 ГБ

В этой теме нет новых непрочитанных сообщений. Объект страсти / Object of Obsession [драма, мелодрама, 1994] DVDRip, Mvo

salma3

169 | 48

859.63 МБ

В этой теме нет новых непрочитанных сообщений. Лучшее лето / Den bästa sommaren [драма, комедия, семейный, 2000] DVDRip, Avo

salma3

68 | 3

1.35 ГБ


Начать новую тему Ответить на тему  [ 1 сообщение ] 




Для Мосгорсуда, Роскомнадзора и рекламодателей:: mosgorsud-torrent[собачка]yandex.ru