Торрент файл
скачать торрент магнет ссылка Добавлен: 01 апр 2012, 20:52
Размер: 2.1 ГБ
Сидеров: 133
Личеров: 5
Автор

СообщениеДобавлено: 01 апр 2012, 20:52 

Не в сети
Супермодератор
Аватара пользователя
Дата регистрации:
11 апр 2010, 18:10
Спасибо: 5801 / 7
Сообщения: 56779
То лето страсти / Un ete brulant


Перевод: Профессиональный (многоголосый, закадровый), cубтитры: отсутствуют
Формат: DVDRip-AVC, MKV, H.264, AC3
Страна: Франция, Италия, Швейцария
Режиссер: Филипп Гаррель
Жанр: драма
Продолжительность: 01:31:15
Год выпуска: 2011

В ролях: Моника Беллуччи, Луи Гаррель, Селин Саллетт, Жером Робар, Морис Гаррель

Описание: Художник страдает после того, как его жена, актриса, покинула его. Герой нашёл свой выход: самоубийство в автокатастрофе, и теперь, оглядываясь назад, вспоминает о бурных страстях, ярких и настоящих чувствах, которые сопутствовали роману с его бывшей.



Видео: 1024 x 424 (2.40:1), 25.000 fps, AVC (х264) High@L4.1, ~ 2913 Kbps, 0.268 bit/pixel
Аудио: 48 kHz, AC3 Dolby Digital, 3/2 (L,C,R,l,r) + LFE ch, ~ 384 kbps avg


Рип: jeenart

General
Unique ID: 172100206205495075788833944868590761110 (0x81794B474BBBCA9B989DDFCF964CB496)
Complete name: F:\Мои релизы\Все релизы 10\un_ete_brulant_[tfile.ru].mkv
Format: Matroska
File size: 2.10 GiB
Duration: 1h 31mn
Overall bit rate: 3 299 Kbps
Encoded date: UTC 2012-01-19 00:04:37
Writing application: mkvmerge v4.6.0 ('Still Crazy After All These Years') сборка от Apr1 2011 21:01:49
Writing library: libebml v1.2.0 + libmatroska v1.1.0

Video
ID: 1
Format: AVC
Format/Info: Advanced Video Codec
Format profile: High@L4.1
Format settings, CABAC: Yes
Format settings, ReFrames: 4 frames
Format settings, GOP: N=1
Codec ID: V_MPEG4/ISO/AVC
Duration: 1h 31mn
Bit rate: 2 913 Kbps
Width: 1 024 pixels
Height: 424 pixels
Display aspect ratio: 2.40:1
Frame rate: 25.000 fps
Color space: YUV
Chroma subsampling: 4:2:0
Bit depth: 8 bits
Scan type: Progressive
Bits/(Pixel*Frame): 0.268
Stream size: 1.82 GiB (86%)
Writing library: x264 core 115 r1937 aa21558
Encoding settings: cabac=1 / ref=3 / deblock=1:-1:-1 / analyse=0x3:0x113 / me=hex / subme=7 / psy=1 / psy_rd=1.00:0.10 / mixed_ref=1 / me_range=16 / chroma_me=1 / trellis=1 / 8x8dct=1 / cqm=0 / deadzone=21,11 / fast_pskip=1 / chroma_qp_offset=-3 / threads=6 / sliced_threads=0 / nr=0 / decimate=1 / interlaced=0 / bluray_compat=0 / constrained_intra=0 / bframes=3 / b_pyramid=2 / b_adapt=1 / b_bias=0 / direct=3 / weightb=1 / open_gop=0 / weightp=2 / keyint=250 / keyint_min=25 / scenecut=40 / intra_refresh=0 / rc_lookahead=40 / rc=2pass / mbtree=1 / bitrate=2913 / ratetol=1.0 / qcomp=0.60 / qpmin=0 / qpmax=69 / qpstep=4 / cplxblur=20.0 / qblur=0.5 / ip_ratio=1.40 / aq=1:1.00

Audio
ID: 2
Format: AC-3
Format/Info: Audio Coding 3
Mode extension: CM (complete main)
Codec ID: A_AC3
Duration: 1h 31mn
Bit rate mode: Constant
Bit rate: 384 Kbps
Channel(s): 6 channels
Channel positions: Front: L C R, Side: L R, LFE
Sampling rate: 48.0 KHz
Bit depth: 16 bits
Compression mode: Lossy
Stream size: 251 MiB (12%)














Поделиться:




реклама партнёра


Вернуться к началу
 Профиль Отправить личное сообщение  
 
   Похожие торренты   Автор   Торрент   Размер 
В этой теме нет новых непрочитанных сообщений. Постоянные любовники / Les amants réguliers (Филипп Гаррель / Philippe Garrel) [2004г., Франция, драма, артхаус, DVDRip] MVO

Alfredovich

4 | 1

2.75 ГБ

В этой теме нет новых непрочитанных сообщений. В одно прекрасное лето / Лето на ранчо Койот / Coyote Summer [мелодрама, приключения, семейный, 1995] DVDRip, Avo

salma3

25 | 7

1.46 ГБ

В этой теме нет новых непрочитанных сообщений. Жрица страсти / Woman of Desire [драма, триллер, 1993] DVDRip, Avo

salma3

506 | 16

1.37 ГБ

В этой теме нет новых непрочитанных сообщений. Волна страсти / In God's Hands [драма, боевик, спорт, 1998] DVDRip, Mvo

salma3

12 | 2

1.46 ГБ

В этой теме нет новых непрочитанных сообщений. Объект страсти / Object of Obsession [драма, мелодрама, 1994] DVDRip, Mvo

salma3

169 | 48

859.63 МБ

В этой теме нет новых непрочитанных сообщений. Лучшее лето / Den bästa sommaren [драма, комедия, семейный, 2000] DVDRip, Avo

salma3

68 | 3

1.35 ГБ

В этой теме нет новых непрочитанных сообщений. Друзья / Les deux amis (Луи Гаррель / Louis Garrel) [2015, Франция, Мелодрама, комедия, WEB-DLRip] MVO

Alfredovich

1921 | 142

1.45 ГБ


Начать новую тему Ответить на тему  [ 1 сообщение ] 




Для Мосгорсуда, Роскомнадзора и рекламодателей:: mosgorsud-torrent[собачка]yandex.ru