Торрент файл
скачать торрент магнет ссылка Добавлен: 01 апр 2012, 20:49
Размер: 1.45 ГБ
Сидеров: 3
Личеров: 8
Автор

СообщениеДобавлено: 01 апр 2012, 20:49 

Не в сети
Супермодератор
Аватара пользователя
Дата регистрации:
11 апр 2010, 18:10
Спасибо: 5799 / 7
Сообщения: 56779
Пантера / Panther



Перевод: Профессиональный (одноголосый), cубтитры: отсутствуют
Формат: DVDRip, MKV, H264, AC3
Страна: США, Великобритания
Режиссер: Марио Ван Пиблз
Жанр: драма
Продолжительность: 02:06:39
Год выпуска: 1995

В ролях: Кадим Хардисон, Боким Вудбайн, Джо Дон Бэйкер, Кортни Б. Вэнс, Тайрин Тернер, Маркус Чонг, Энтони Гриффит, Бобби Браун, Нефертити, Джеймс Руссо, Дженифер Льюис, Крис Рок, Марио Ван Пиблз

Описание: Партию "Черных пантер" создали два парня — Бобби Сил и Хьюи Ньютон. Действие фильма для нашего героя начинается в штате Окленд после того, как машина белого сбила черного мальчишку на велосипеде. Вместе с основателями партии он всю жизнь посвятил борьбе за права цветных. Но его доля был тяжелей, так как Хьюи Ньютон поручил ему быть осведомителем полиции, через которого "пантеры" давали властям дозированную информацию. И никто, кроме Хьюи, об этом не знал. В фильме утверждается, что Гувер приказал гангстерам за бесценок распространять наркотики в гетто, чтобы сломить черных, а в рузльтате наркотики поразили всю страну. Хотя я не очень люблю фильмы такого рода, но этот сделан на редкость хорошо и увлекательно. Сценарий Мелвина Ван Пиблза по его же роману "Пантера"



Видео: 720х336 (1.91:1), 23.976 fps,Advanced Video Codec ( High@L4.1 ), ~1266 kbps avg, 0.218 bit/pixel
Аудио 1:Русский 48 kHz, AC3, 1 ch, ~192 kbps avg[Профессиональный - одноголосый]
Аудио 2:Английский 48 kHz, AC3, 2 ch, ~192 kbps avg[Оригинал]


General
Complete name : panther_[tfile.ru].mkv
Format : Matroska
File size : 1.45 GiB
Duration : 2h 6mn
Overall bit rate : 1 644 Kbps
Encoded date : UTC 2011-02-13 11:48:35
Writing application : mkvmerge v4.5.0 ('Speed of Light') сборка от Feb1 2011 02:10:32
Writing library : libebml v1.2.0 + libmatroska v1.1.0
Video #1
ID : 1
Format : AVC
Format/Info : Advanced Video Codec
Format profile : High@L4.1
Format settings, CABAC : Yes
Format settings, ReFrames : 8 frames
Muxing mode : Container profile=Unknown@4.1
Codec ID : V_MPEG4/ISO/AVC
Duration : 2h 6mn
Bit rate : 1 227 Kbps
Nominal bit rate : 1 266 Kbps
Width : 720 pixels
Height : 336 pixels
Display aspect ratio : 1.914
Frame rate : 23.976 fps
Resolution : 24 bits
Colorimetry : 4:2:0
Scan type : Progressive
Bits/(Pixel*Frame) : 0.212
Stream size : 1.08 GiB (75%)
Writing library : x264 core 98 r1649 20cbe10
Encoding settings : cabac=1 / ref=8 / deblock=1:-1:-1 / analyse=0x3:0x133 / me=umh / subme=9 / psy=1 / psy_rd=1.00:0.00 / mixed_ref=1 / me_range=16 / chroma_me=1 / trellis=2 / 8x8dct=1 / cqm=0 / deadzone=21,11 / fast_pskip=1 / chroma_qp_offset=-2 / threads=6 / sliced_threads=0 / nr=0 / decimate=1 / interlaced=0 / constrained_intra=0 / bframes=3 / b_pyramid=0 / b_adapt=2 / b_bias=0 / direct=3 / weightb=1 / weightp=2 / keyint=250 / keyint_min=25 / scenecut=40 / intra_refresh=0 / rc_lookahead=60 / rc=2pass / mbtree=1 / bitrate=1266 / ratetol=1.0 / qcomp=0.60 / qpmin=10 / qpmax=51 / qpstep=4 / cplxblur=20.0 / qblur=0.5 / vbv_maxrate=50000 / vbv_bufsize=50000 / ip_ratio=1.40 / aq=1:1.00 / nal_hrd=none
Audio #2
ID : 2
Format : AC-3
Format/Info : Audio Coding 3
Format profile : Dolby Digital
Codec ID : A_AC3
Duration : 2h 6mn
Bit rate mode : Constant
Bit rate : 192 Kbps
Channel(s) : 2 channels
Channel positions : L R
Sampling rate : 48.0 KHz
Stream size : 174 MiB (12%)
Audio #3
ID : 3
Format : AC-3
Format/Info : Audio Coding 3
Codec ID : A_AC3
Duration : 2h 6mn
Bit rate mode : Constant
Bit rate : 192 Kbps
Channel(s) : 1 channel
Channel positions : C
Sampling rate : 48.0 KHz
Video delay : 4s 500ms
Stream size : 174 MiB (12%)
Language : Russian
Text #4
ID : 4
Format : UTF-8
Codec ID : S_TEXT/UTF8
Codec ID/Info : UTF-8 Plain Text






Поделиться:




реклама партнёра


Вернуться к началу
 Профиль Отправить личное сообщение  
 
   Похожие торренты   Автор   Торрент   Размер 
В этой теме нет новых непрочитанных сообщений. Давайте надеяться, что будет девочка / Надеемся, что будет девочка / Speriamo che sia femmina (Марио Моничелли / Mario Monicelli) [1986г., драма, комедия, DVDRip] avo

Alfredovich

5 | 3

1.47 ГБ

В этой теме нет новых непрочитанных сообщений. Steel Panther - Balls Out [2011, Rock, MP3]

PriZraK

0 | 1

94.63 МБ

В этой теме нет новых непрочитанных сообщений. Красная пантера - Время пришло [1989, Hard'n'Heavy, MP3]

PriZraK

0 | 2

74.88 МБ

В этой теме нет новых непрочитанных сообщений. Круг / Circle (Аарон Ханн, Марио Мисионе) [2015, ужасы, фантастика, триллер, драма, HDRip] avo

Nickolas3435

42 | 3

898.95 МБ

В этой теме нет новых непрочитанных сообщений. Steel Panther - All You Can Eat [2014, Hard Rock, Glam Metal, MP3]

PriZraK

0 | 1

111.32 МБ

В этой теме нет новых непрочитанных сообщений. Фиеста / Fiesta [драма, 1995] DVDRip, Avo

salma3

17 | 4

1.36 ГБ

В этой теме нет новых непрочитанных сообщений. Спасение / Safe [Драма, 1995] DVDRip, Dvo

salma3

8 | 7

1.46 ГБ


Начать новую тему Ответить на тему  [ 1 сообщение ] 




Для Мосгорсуда, Роскомнадзора и рекламодателей:: mosgorsud-torrent[собачка]yandex.ru