Торрент файл
скачать торрент магнет ссылка Добавлен: 01 апр 2012, 20:46
Размер: 1.76 ГБ
Сидеров: 18
Личеров: 6
Автор

СообщениеДобавлено: 01 апр 2012, 20:46 

Не в сети
Супермодератор
Аватара пользователя
Дата регистрации:
11 апр 2010, 18:10
Спасибо: 5801 / 7
Сообщения: 56779
Голубая Бездна / Grand bleu, Le / The Big Blue

Перевод: Профессиональный (многоголосый, закадровый), cубтитры: отсутствуют

Формат: DVDRip, AVI, DivX, AC3
Страна: Франция, США, Италия
Режиссер: Люк Бессон / Luc Besson
Жанр: драма, мелодрама, приключения
Продолжительность: 02:47:10 [режиссёрская версия]
Год выпуска: 1988

В ролях: Жан Рено (Jean Reno), Жан-Марк Барр (Jean-Marc Barr), Розанна Аркетт (Rosanna Arquette), Пол Шенар (Paul Shenar)

Описание: Два давних соперника — Энцо Молинари (Рено) и Жак Майоль (Барр) — вместе росли на одном из греческих островов. Отец Жака, ныряльщик, погиб при сборе устриц из-за неисправности водолазного оборудования. Проходят годы, мальчики уже выросли и снова встречаются после нескольких лет разлуки. Оба стали ныряльщиками на глубину без акваланга, и соревнование на чемпионатах мира практически ведётся только между ними.

Симпатичная работница страхового агентства (Аркетт) влюбляется в Жака с первого взгляда и едет за ним из Перу в Сицилию, где и становится свидетельницей начала опасного поединка между друзьями. От Жака она уже ждёт ребёнка. А друзья погружаются все на большую и большую глубину. Пройдена отметка в 120 метров. Кто же выиграет в этом давнем поединке?

Великолепнейший, очень искренний фильм Люка Бессона - режиссёра, с детства бредившего морем, подводным плаваньем и дельфинами.




Видео: 704x304,MPEG-4 Visual, (2.32:1),DivX 5, 23.976 fps, ~851 kbps avg, 0.17 bit/pixel
Аудио: #1 Русский:48 kHz,AC3 Dolby Digital, 2/0 (L,R) ch, ~192.00 kbps avg[Профессиональный многоголосый]
Аудио: #2 Русский : 48 kHz, AC-3 Dolby Digital, 3/2 (L,C,R,l,r) + LFE ch, ~448.00 kbps avg [Любительский одноголосый]

Общее
Полное имя: F:\video\Big Blue\Big Blue.avi
Формат: AVI
Формат/Информация: Audio Video Interleave
Размер файла: 1,76 Гбайт
Продолжительность: 2 ч. 47 м.
Общий поток: 1505 Кбит/сек
Программа кодирования: VirtualDubMod 1.5.10.2 (build 2542/release)
Библиотека кодирования: VirtualDubMod build 2542/release

Видео
Идентификатор: 0
Формат: MPEG-4 Visual
Параметр BVOP формата: 1
Параметр QPel формата: Нет
Параметр GMC формата: Без точки перехода
Параметр матрицы формата: Default (H.263)
Режим смешивания: Сжатый битовый поток
Идентификатор кодека: DX50
Идентификатор кодека/Подсказка: DivX 5
Продолжительность: 2 ч. 47 м.
Битрейт: 852 Кбит/сек
Ширина: 704 пикселя
Высота: 304 пикселя
Соотношение сторон: 2,35:1
Частота кадров: 23,976 кадра/сек
Цветовое пространство: YUV
Субдискретизация насыщенности: 4:2:0
Битовая глубина: 8 бит
Тип развёртки: Прогрессивная
Метод сжатия: С потерями
Бит/(Пиксели*Кадры): 0.166
Размер потока: 1019 Мбайт (57%)
Библиотека кодирования: DivX 6.2.5 (UTC 2006-07)

Аудио #1
Идентификатор: 1
Формат: AC-3
Формат/Информация: Audio Coding 3
Профиль формата: Dolby Digital
Расширение режима: CM (complete main)
Идентификатор кодека: 2000
Продолжительность: 2 ч. 47 м.
Вид битрейта: Постоянный
Битрейт: 192 Кбит/сек
Каналы: 2 канала
Расположение каналов: Front: L R
Частота: 48,0 КГц
Битовая глубина: 16 бит
Метод сжатия: С потерями
Размер потока: 230 Мбайт (13%)
Выравнивание: Разделение по промежуткам
Продолжительность промежутка: 64мс. (1,53 видеокадра)
Время предзагрузки промежутка: 64мс.
Язык: Russian

Аудио #2
Идентификатор: 2
Формат: AC-3
Формат/Информация: Audio Coding 3
Расширение режима: CM (complete main)
Идентификатор кодека: 2000
Продолжительность: 2 ч. 47 м.
Вид битрейта: Постоянный
Битрейт: 448 Кбит/сек
Каналы: 6 каналов
Расположение каналов: Front: L C R, Side: L R, LFE
Частота: 48,0 КГц
Битовая глубина: 16 бит
Метод сжатия: С потерями
Размер потока: 536 Мбайт (30%)
Выравнивание: Разделение по промежуткам
Продолжительность промежутка: 42мс. (1,00 видеокадр)
Время предзагрузки промежутка: 500мс.
Язык: Russian








Поделиться:




реклама партнёра


Вернуться к началу
 Профиль Отправить личное сообщение  
 
   Похожие торренты   Автор   Торрент   Размер 
В этой теме нет новых непрочитанных сообщений. Голубая лагуна / Blue Lagoon: The Awakening [Драма, мелодрама, приключения, 2012] HDTVRip 1080p, Mvo

salma3

122 | 10

3.36 ГБ

В этой теме нет новых непрочитанных сообщений. Голубая сталь / Blue Steel [Триллер, детектив, боевик, драма, 1989] BDRip-AVC, Mvo+Dvo+Avo+Sub

salma3

31 | 4

2.72 ГБ

В этой теме нет новых непрочитанных сообщений. Голубая кровь / Blue Bloods / 2 сезон 1-22 серии из 22 [Драма, криминал, 2011] WEB-DLRip, Dvo [CBS Drama]

salma3

27 | 44

8.67 ГБ

В этой теме нет новых непрочитанных сообщений. Голубая кровь / Blue Bloods / 3 сезон 1-5 серии из 23 [Драма, криминал, 2012] WEB-DLRip, Dvo [CBS Drama]

salma3

1 | 1

1.97 ГБ

В этой теме нет новых непрочитанных сообщений. Голубая кровь / Blue Bloods / 1 сезон 1-22 серии из 22 [драма, криминал, 2010-2011] WEB-DLRip, Dvo [AlexFilm]

salma3

32 | 5

10.99 ГБ

В этой теме нет новых непрочитанных сообщений. Голубая сталь / Вороненая сталь / Blue Steel [Боевик, триллер, драма, криминал, 1989] BDRip 720p, Dvo+Avo

salma3

15 | 3

4.37 ГБ

В этой теме нет новых непрочитанных сообщений. Кафе "Голубая сойка" / Blue Jay (Александр Леманн / Alexandre Lehmann) [2016г., драма, WEB-DLRip 480p] sub

Alfredovich

0 | 4

593.66 МБ


Начать новую тему Ответить на тему  [ 1 сообщение ] 




Для Мосгорсуда, Роскомнадзора и рекламодателей:: mosgorsud-torrent[собачка]yandex.ru