Торрент файл
скачать торрент магнет ссылка Добавлен: 01 апр 2012, 20:46
Размер: 1.46 ГБ
Сидеров: 29
Личеров: 3
Автор

СообщениеДобавлено: 01 апр 2012, 20:46 

Не в сети
Супермодератор
Аватара пользователя
Дата регистрации:
11 апр 2010, 18:10
Спасибо: 5798 / 7
Сообщения: 56779
Трещины / Cracks

Перевод: Любительский (одноголосый) [© acolith ]
cубтитры: отсутствуют

Формат: HDRip, AVI, XviD, AC3
Страна: Великобритания, Ирландия
Режиссер: Джордан Скотт / Jordan Scott
Жанр: драма
Продолжительность: 01:44:00
Год выпуска: 2009

В ролях: Ева Грин / Eva Green, Джуно Темпл / Juno Temple, Мария Вальверде / María Valverde, Имоджен Путс / Imogen Poots, Элли Нанн / Ellie Nunn, Аделе МакКанн / Adele McCann, Зои Кэрролл / Zoe Carroll, Клемми Дагдэйл / Clemmie Dugdale

Описание: Фильм дочери режиссёра Ридли Скотта, Джордан Скотт. Сюжет картины разворачивается на удалённом острове, в строгой элитной школе-интернате. Учащиеся в ней девочки просто боготворят свою преподавательницу, загадочную инструктора по плаванию мисс Джи (Ева Грин). Однако когда в школу прибывает новая ученица из Испании — красивая девушка по имени Фиамма (Мария Вальверде), мисс Джи начинает уделять новенькой всё больше внимания. Ревность других девочек в конечном итоге приводит к необъяснимому исчезновению Фиаммы...



Видео: 704x384 (1.83:1), 24.000 fps, XviD build 50 ~1548 kbps avg, 0.24 bit/pixel
Аудио: 48 kHz, AC3 Dolby Digital, 3/2 (L,C,R,l,r) + LFE ch, ~448.00 kbps avg

Общее
Полное имя: F:\video\Cracks\Trechiny.avi
Формат: AVI
Формат/Информация: Audio Video Interleave
Размер файла: 1,46 Гбайт
Продолжительность: 1 ч. 44 м.
Общий поток: 2004 Кбит/сек
Название фильма: Trechiny
Жанр: Drama
Программа кодирования: VirtualDubMod 1.5.10.2 (build 2540/release)
Формат оригинала/Имя: Movie
Примечание: translation by ©acolith, BDRip by polkera,

Видео
Идентификатор: 0
Формат: MPEG-4 Visual
Профиль формата: Advanced Simple@L5
Параметр BVOP формата: 2
Параметр QPel формата: Нет
Параметр GMC формата: Без точки перехода
Параметр матрицы формата: Выборочная
Идентификатор кодека: XVID
Идентификатор кодека/Подсказка: XviD
Продолжительность: 1 ч. 44 м.
Битрейт: 1548 Кбит/сек
Ширина: 704 пикселя
Высота: 384 пикселя
Соотношение сторон: 16:9
Частота кадров: 24,000 кадра/сек
Цветовое пространство: YUV
Субдискретизация насыщенности: 4:2:0
Битовая глубина: 8 бит
Тип развёртки: Прогрессивная
Метод сжатия: С потерями
Бит/(Пиксели*Кадры): 0.239
Размер потока: 1,12 Гбайт (77%)
Библиотека кодирования: XviD 1.2.1 (UTC 2008-12-04)

Аудио
Идентификатор: 1
Формат: AC-3
Формат/Информация: Audio Coding 3
Расширение режима: CM (complete main)
Идентификатор кодека: 2000
Продолжительность: 1 ч. 44 м.
Вид битрейта: Постоянный
Битрейт: 448 Кбит/сек
Каналы: 6 каналов
Расположение каналов: Front: L C R, Side: L R, LFE
Частота: 48,0 КГц
Битовая глубина: 16 бит
Метод сжатия: С потерями
Размер потока: 333 Мбайт (22%)
Выравнивание: Разделение по промежуткам
Продолжительность промежутка: 64мс. (1,54 видеокадра)
Время предзагрузки промежутка: 64мс.



Поделиться:




реклама партнёра


Вернуться к началу
 Профиль Отправить личное сообщение  
 
   Похожие торренты   Автор   Торрент   Размер 
В этой теме нет новых непрочитанных сообщений. Q5 - When The Mirror Cracks [1986, Melodic Hard Rock, AOR, MP3]

PriZraK

0 | 1

105.65 МБ

В этой теме нет новых непрочитанных сообщений. 3 Years Hollow - The Cracks [2014, Alt.Metal,Modern Rock, MP3]

PriZraK

1 | 1

97.88 МБ

В этой теме нет новых непрочитанных сообщений. Отец-молодец / Delivery Man (Кен Скотт / Ken Scott) [2013г., комедия, драма, HDRip] Dub

Alfredovich

654 | 9

2.05 ГБ

В этой теме нет новых непрочитанных сообщений. Бобры-зомби / Zombeavers (Джордан Рубин) [ужасы, боевик, комедия, 2014] HDRip, Mvo

Dracon

443 | 138

1.37 ГБ

В этой теме нет новых непрочитанных сообщений. Прогулка среди могил / A Walk Among the Tombstones (Скотт Фрэнк) [2014, детектив, триллер, криминал, драма, HDRip] Dub

Nickolas3435

158 | 4

1.36 ГБ

В этой теме нет новых непрочитанных сообщений. Прогулка среди могил / A Walk Among the Tombstones (Скотт Фрэнк) [2014, детектив, триллер, криминал, драма, HDRip] Dub

Nickolas3435

81 | 4

2.07 ГБ

В этой теме нет новых непрочитанных сообщений. Исход: Цари и боги / Exodus: Gods and Kings (Ридли Скотт) [боевик, драма, приключения, 2014] HDRip, Dub [iTunes]

Dracon

167 | 7

2.74 ГБ


Начать новую тему Ответить на тему  [ 1 сообщение ] 




Для Мосгорсуда, Роскомнадзора и рекламодателей:: mosgorsud-torrent[собачка]yandex.ru