Торрент файл
скачать торрент магнет ссылка Добавлен: 01 апр 2012, 20:40
Размер: 2.17 ГБ
Сидеров: 15
Личеров: 4
Автор

СообщениеДобавлено: 01 апр 2012, 20:40 

Не в сети
Супермодератор
Аватара пользователя
Дата регистрации:
11 апр 2010, 18:10
Спасибо: 5802 / 7
Сообщения: 56779
[b]Валентинка / Blue Valentine[/b]


Перевод: Профессиональный (многоголосый закадровый)
Субтитры: отсутствуют
Формат: HDRip-AVC, MKV, H.264, AC3

Страна:США

Режиссер: Дэрек Сиенфрэнс
Жанр: драма, мелодрама
Продолжительность: 01:52:05
Год выпуска: 2010

В ролях: Райан Гослинг, Мишель Уильямс, Фэйт Владыка, Джон Доумен, Майк Фогель, Маршалл Джонсон, Джен Джонс, Марианн Планкетт, Джеймс Бенатти, Барбара Трой.

Описание: История непростых взаимоотношений молодой пары, которая всеми силами пытается спасти свой брак.



Видео: 1024x616 (1.662:1), 23.976 fps, AVC MPEG-4 High@L4.1 ~1875 kbps avg, 0.124 bit/pixel
Аудио #1: русский48 kHz, AC3 Dolby Digital, 3/2 (L,C,R,l,r) + LFE ch, ~448 kbps avg [Профессиональный (многоголосый закадровый)]
Аудио #2: английский48 kHz, AC3 Dolby Digital, 3/2 (L,C,R,l,r) + LFE ch, ~448 kbps avg [оригинал]


General
Unique ID: 198858986624898746730360092218160502961 (0x959AD903343A152FB00498FFC13ED8B1)
Complete name: D:\Blue.Valentine.2010.P.2010.mkv
Format: Matroska
Format version: Version 2
File size: 2.17 GiB
Duration: 1h 52mn
Overall bit rate: 2 771 Kbps
Encoded date: UTC 2012-02-09 14:12:29
Writing application: mkvmerge v5.0.1 ('Es ist Sommer') built on Oct 24 2011 19:45:06
Writing library: libebml v1.2.2 + libmatroska v1.3.0

Video
ID: 1
Format: AVC
Format/Info: Advanced Video Codec
Format profile: High@L4.1
Format settings, CABAC: Yes
Format settings, ReFrames: 9 frames
Muxing mode: Header stripping
Codec ID: V_MPEG4/ISO/AVC
Duration: 1h 52mn
Bit rate: 1 875 Kbps
Width: 1 024 pixels
Height: 616 pixels
Display aspect ratio: 1.662
Frame rate: 23.976 fps
Color space: YUV
Chroma subsampling: 4:2:0
Bit depth: 8 bits
Scan type: Progressive
Bits/(Pixel*Frame): 0.124
Stream size: 1.42 GiB (66%)
Writing library: x264 core 115 r1937 aa21558
Encoding settings: cabac=1 / ref=9 / deblock=1:-2:-1 / analyse=0x3:0x133 / me=umh / subme=9 / psy=1 / psy_rd=1.00:0.10 / mixed_ref=1 / me_range=32 / chroma_me=0 / trellis=2 / 8x8dct=1 / cqm=0 / deadzone=21,11 / fast_pskip=0 / chroma_qp_offset=-3 / threads=12 / sliced_threads=0 / nr=0 / decimate=0 / interlaced=0 / bluray_compat=0 / constrained_intra=0 / bframes=8 / b_pyramid=2 / b_adapt=2 / b_bias=0 / direct=3 / weightb=1 / open_gop=0 / weightp=2 / keyint=250 / keyint_min=23 / scenecut=40 / intra_refresh=0 / rc_lookahead=80 / rc=2pass / mbtree=1 / bitrate=1875 / ratetol=1.0 / qcomp=0.60 / qpmin=0 / qpmax=69 / qpstep=4 / cplxblur=20.0 / qblur=0.5 / ip_ratio=1.40 / aq=1:1.00
Language: English
Default: Yes
Forced: No

Audio #1
ID: 2
Format: AC-3
Format/Info: Audio Coding 3
Mode extension: CM (complete main)
Muxing mode: Header stripping
Codec ID: A_AC3
Duration: 1h 52mn
Bit rate mode: Constant
Bit rate: 448 Kbps
Channel(s): 6 channels
Channel positions: Front: L C R, Side: L R, LFE
Sampling rate: 48.0 KHz
Bit depth: 16 bits
Compression mode: Lossy
Stream size: 359 MiB (16%)
Title: MVO
Language: Russian
Default: Yes
Forced: No

Audio #2
ID: 3
Format: AC-3
Format/Info: Audio Coding 3
Mode extension: CM (complete main)
Muxing mode: Header stripping
Codec ID: A_AC3
Duration: 1h 52mn
Bit rate mode: Constant
Bit rate: 448 Kbps
Channel(s): 6 channels
Channel positions: Front: L C R, Side: L R, LFE
Sampling rate: 48.0 KHz
Bit depth: 16 bits
Compression mode: Lossy
Stream size: 359 MiB (16%)
Title: Eng
Language: English
Default: No
Forced: No








Поделиться:




реклама партнёра


Вернуться к началу
 Профиль Отправить личное сообщение  
 
   Похожие торренты   Автор   Торрент   Размер 
В этой теме нет новых непрочитанных сообщений. День святого Валентина / Valentine's Day [боевик, триллер, драма, мелодрама, 1998] VODRip, Mvo

salma3

2 | 3

1.44 ГБ

В этой теме нет новых непрочитанных сообщений. Будь моим Валентином / Be My Valentine [Мелодрама, 2013] DVDRip, Mvo

salma3

97 | 4

1.37 ГБ

В этой теме нет новых непрочитанных сообщений. Будь моим Валентином / Be My Valentine [Мелодрама, 2013] SATRip, Mvo

salma3

71 | 5

1.17 ГБ

В этой теме нет новых непрочитанных сообщений. Мой кровавый Валентин / My Bloody Valentine [ужасы, триллер, детектив, 1981] HDRip, Mvo

salma3

14 | 4

1.46 ГБ

В этой теме нет новых непрочитанных сообщений. Голубое небо / Blue Sky [драма, мелодрама, 1994] HDTVRip, Mvo

salma3

79 | 29

1.46 ГБ

В этой теме нет новых непрочитанных сообщений. Огнепоклонники / Blue Smoke [триллер, драма, мелодрама, 2007] DVDRip, Mvo

salma3

24 | 6

1.46 ГБ

В этой теме нет новых непрочитанных сообщений. Огнепоклонники / Blue Smoke [триллер, драма, мелодрама, 2007] DVDRip-AVC, Mvo

salma3

7 | 2

1.46 ГБ


Начать новую тему Ответить на тему  [ 1 сообщение ] 




Для Мосгорсуда, Роскомнадзора и рекламодателей:: mosgorsud-torrent[собачка]yandex.ru