Торрент файл
скачать торрент магнет ссылка Добавлен: 01 апр 2012, 20:39
Размер: 747.12 МБ
Сидеров: 2
Личеров: 2
Автор

СообщениеДобавлено: 01 апр 2012, 20:39 

Не в сети
Супермодератор
Аватара пользователя
Дата регистрации:
11 апр 2010, 18:10
Спасибо: 5802 / 7
Сообщения: 56779
[b]Билли Эллиот / Billy Elliot[/b]


Перевод: Профессиональный (полное дублирование)
Субтитры: отсутствуют
Формат: LowHDRip-AVC, MKV, H.264, AC3

Страна: Франция, Великобритания

Режиссер: Стивен Долдри
Жанр: драма, комедия, музыка
Продолжительность: 01:50:50
Год выпуска: 2000

В ролях: Джейми Белл, Джин Хейвуд, Джэми Дрэйвен, Гари Льюис, Стюарт Уэллс, Майк Эллиот, Билли Фейн, Николя Блэкуелл, Джули Уолтерс, Кэрол МакГиган, Джо Рентон, Колин МакЛахлан.

Описание: Чем должен увлекаться сын шахтера? Сомнений нет: боксом и только боксом. Но у 11-летнего Билли Эллиота на этот счет было свое мнение. Он был влюблен в… балет.

Отец и старший брат Тони впадают в ярость, когда узнают, что он «променял бокс» на менее «мужественный балет». И только острая на язык миссис Уилкинсон поддерживает Билли в его желании танцевать, и он получает шанс поступить в Королевскую балетную школу.




Видео: 816x352 (2.35:1), 23.976 fps, AVC MPEG-4 High@L4.1 ~774 kbps avg, 0.112 bit/pixel
Аудио: 48 kHz, AC3 Dolby Digital, 2/0 (L, R) ch, ~160 kbps avg

Рип от: S.I.D 'a


General
Unique ID: 254733433720857712383676992637669299465 (0xBFA3DFF1D76B288389A667D6E8715509)
Complete name: F:\Рипы от папы Карло\Billi.Elliot.2000.D.HDRip.700.S.I.D.mkv
Format: Matroska
Format version: Version 2
File size: 747 MiB
Duration: 1h 50mn
Overall bit rate: 943 Kbps
Movie name: Billy.Elliot.S.I.D
Encoded date: UTC 2012-02-11 16:10:09
Writing application: mkvmerge v5.0.1 ('Es ist Sommer') built on Oct 24 2011 19:45:06
Writing library: libebml v1.2.2 + libmatroska v1.3.0

Video
ID: 1
Format: AVC
Format/Info: Advanced Video Codec
Format profile: High@L4.1
Format settings, CABAC: Yes
Format settings, ReFrames: 8 frames
Muxing mode: Header stripping
Codec ID: V_MPEG4/ISO/AVC
Duration: 1h 50mn
Bit rate: 774 Kbps
Width: 816 pixels
Height: 352 pixels
Display aspect ratio: 2.35:1
Frame rate: 23.976 fps
Color space: YUV
Chroma subsampling: 4:2:0
Bit depth: 8 bits
Scan type: Progressive
Bits/(Pixel*Frame): 0.112
Stream size: 605 MiB (81%)
Writing library: x264 core 119 r2106 07efeb4
Encoding settings: cabac=1 / ref=8 / deblock=1:-1:-1 / analyse=0x3:0x111 / me=umh / subme=0 / psy=1 / psy_rd=1.00:0.10 / mixed_ref=1 / me_range=16 / chroma_me=1 / trellis=2 / 8x8dct=1 / cqm=0 / deadzone=21,11 / fast_pskip=1 / chroma_qp_offset=-3 / threads=6 / sliced_threads=0 / nr=0 / decimate=1 / interlaced=0 / bluray_compat=0 / constrained_intra=0 / bframes=3 / b_pyramid=2 / b_adapt=2 / b_bias=0 / direct=1 / weightb=1 / open_gop=0 / weightp=2 / keyint=250 / keyint_min=23 / scenecut=40 / intra_refresh=0 / rc=abr / mbtree=0 / bitrate=774 / ratetol=1.0 / qcomp=0.60 / qpmin=0 / qpmax=69 / qpstep=4 / ip_ratio=1.40 / pb_ratio=1.30 / aq=1:0.10
Language: English
Default: Yes
Forced: No

Audio
ID: 2
Format: AC-3
Format/Info: Audio Coding 3
Mode extension: CM (complete main)
Muxing mode: Header stripping
Codec ID: A_AC3
Duration: 1h 50mn
Bit rate mode: Constant
Bit rate: 160 Kbps
Channel(s): 2 channels
Channel positions: Front: L R
Sampling rate: 48.0 KHz
Bit depth: 16 bits
Compression mode: Lossy
Stream size: 127 MiB (17%)
Title: Dub
Language: Russian
Default: Yes
Forced: No








Поделиться:




реклама партнёра


Вернуться к началу
 Профиль Отправить личное сообщение  
 
   Похожие торренты   Автор   Торрент   Размер 
В этой теме нет новых непрочитанных сообщений. Билли и Билли / Billy and Billie [S01x01-10 из 10] (Нил ЛаБут) [2015, Драма, мелодрама, комедия, WEB-DL 720p | Lord32x Studio]

Dracon

8 | 5

8.95 ГБ

В этой теме нет новых непрочитанных сообщений. Билли и Билли / Billy and Billie [S01x01-10 из 10] (Нил ЛаБут) [2015, Драма, мелодрама, комедия, WEB-DLRip | Lord32x Studio]

Dracon

11 | 11

4.4 ГБ

В этой теме нет новых непрочитанных сообщений. Билли Мэдисон / Billy Madison [комедия, 1995] BDRip 1080p, Mvo+Sub

salma3

20 | 5

9.38 ГБ

В этой теме нет новых непрочитанных сообщений. Свалка / Trash (Стивен Долдри) [Триллер, драма, криминал, приключения, 2014] HDRip, Dub [Лицензия]

Dracon

7 | 3

2.05 ГБ

В этой теме нет новых непрочитанных сообщений. Свалка / Trash (Стивен Долдри) [Триллер, драма, криминал, приключения, 2014] BDRip 720p, Dub [Лицензия]

Dracon

4 | 2

7.74 ГБ

В этой теме нет новых непрочитанных сообщений. Свалка / Trash (Стивен Долдри) [Триллер, драма, криминал, приключения, 2014] BDRip 1080p, Dub [Лицензия]

Dracon

6 | 11

13.95 ГБ

В этой теме нет новых непрочитанных сообщений. Свалка / Trash (Стивен Долдри / Stephen Daldry) [2014г., Великобритания, триллер, драма, криминал, приключения, HDRip] Dub

Alfredovich

620 | 6

1.37 ГБ


Начать новую тему Ответить на тему  [ 1 сообщение ] 




Для Мосгорсуда, Роскомнадзора и рекламодателей:: mosgorsud-torrent[собачка]yandex.ru