Торрент файл
скачать торрент магнет ссылка Добавлен: 01 апр 2012, 20:39
Размер: 1.5 ГБ
Сидеров: 8
Личеров: 3
Автор

СообщениеДобавлено: 01 апр 2012, 20:39 

Не в сети
Супермодератор
Аватара пользователя
Дата регистрации:
11 апр 2010, 18:10
Спасибо: 5799 / 7
Сообщения: 56779
[b]Ромовый дневник / The Rum Diary[/b]


Перевод: Профессиональный (полное дублирование)
Субтитры: отсутствуют
Формат: HDRip-AVC, MKV, H.264, AC3

Страна: США

Режиссер: Брюс Робинсон
Жанр: драма, комедия, приключения
Продолжительность: 01:59:58
Год выпуска: 2010

В ролях: Джонни Депп, Майкл Рисполи, Аарон Экхарт, Эмбер Хёрд, Джованни Рибизи, Ричард Дженкинс, Амори Ноласко, Маршалл Белл, Энди Умбергер, Билл Смитрович.

Описание: 1960-й год. Талантливый журналист Пол Кэмп, которого достала лживая глянцевая жизнь Нью-Йорка, бросает работу в престижном издании и уезжает в Пуэрто-Рико, где ром льется рекой, где дешево все — машины, яхты, девушки, здесь саму жизнь продают за копейки…



Видео: 848x360 (2.35:1), 23.976 fps, AVC MPEG-4 High@L4.1 ~1397 kbps avg, 0.191 bit/pixel
Аудио: 48 kHz, AC3 Dolby Digital, 3/2 (L,C,R,l,r) + LFE ch, ~384 kbps avg

Рип от: S.I.D 'a


General
Unique ID: 238121338937503106300850303775904942773 (0xB324806FC96EF08BB432FEF4C86CCAB5)
Complete name: F:\Рипы от S.I.D' а\Romovyj.dnevnik.2011.D.HDRip.S.I.D.mkv
Format: Matroska
Format version: Version 2
File size: 1.50 GiB
Duration: 1h 59mn
Overall bit rate: 1 786 Kbps
Movie name: The.Rum.Diary.S.I.D
Encoded date: UTC 2012-02-14 14:01:44
Writing application: mkvmerge v5.0.1 ('Es ist Sommer') built on Oct 24 2011 19:45:06
Writing library: libebml v1.2.2 + libmatroska v1.3.0

Video
ID: 1
Format: AVC
Format/Info: Advanced Video Codec
Format profile: High@L4.1
Format settings, CABAC: Yes
Format settings, ReFrames: 8 frames
Muxing mode: Header stripping
Codec ID: V_MPEG4/ISO/AVC
Duration: 1h 59mn
Bit rate: 1 397 Kbps
Width: 848 pixels
Height: 360 pixels
Display aspect ratio: 2.35:1
Frame rate: 23.976 fps
Color space: YUV
Chroma subsampling: 4:2:0
Bit depth: 8 bits
Scan type: Progressive
Bits/(Pixel*Frame): 0.191
Stream size: 1.15 GiB (77%)
Writing library: x264 core 119 r2106 07efeb4
Encoding settings: cabac=1 / ref=8 / deblock=1:-1:-1 / analyse=0x3:0x111 / me=dia / subme=7 / psy=1 / psy_rd=1.00:0.10 / mixed_ref=1 / me_range=16 / chroma_me=1 / trellis=2 / 8x8dct=1 / cqm=0 / deadzone=21,11 / fast_pskip=1 / chroma_qp_offset=-6 / threads=6 / sliced_threads=0 / nr=0 / decimate=1 / interlaced=0 / bluray_compat=0 / constrained_intra=0 / bframes=3 / b_pyramid=2 / b_adapt=1 / b_bias=0 / direct=1 / weightb=1 / open_gop=0 / weightp=2 / keyint=250 / keyint_min=23 / scenecut=40 / intra_refresh=0 / rc_lookahead=40 / rc=abr / mbtree=1 / bitrate=1397 / ratetol=1.0 / qcomp=0.60 / qpmin=0 / qpmax=69 / qpstep=4 / ip_ratio=1.40 / aq=1:0.10
Language: English
Default: Yes
Forced: No

Audio
ID: 2
Format: AC-3
Format/Info: Audio Coding 3
Mode extension: CM (complete main)
Muxing mode: Header stripping
Codec ID: A_AC3
Duration: 1h 59mn
Bit rate mode: Constant
Bit rate: 384 Kbps
Channel(s): 6 channels
Channel positions: Front: L C R, Side: L R, LFE
Sampling rate: 48.0 KHz
Bit depth: 16 bits
Compression mode: Lossy
Stream size: 330 MiB (21%)
Title: Dub
Language: Russian
Default: Yes
Forced: No








Поделиться:




реклама партнёра


Вернуться к началу
 Профиль Отправить личное сообщение  
 
   Похожие торренты   Автор   Торрент   Размер 
В этой теме нет новых непрочитанных сообщений. Дневник девочки-подростка / The Diary of a Teenage Girl [Драма, мелодрама, 2015] HDRip, Mvo [iTunes]

Dracon

223 | 11

2.04 ГБ

В этой теме нет новых непрочитанных сообщений. Дневник девочки-подростка / The Diary of a Teenage Girl [Драма, мелодрама, 2015] HDRip, Mvo [iTunes]

Dracon

656 | 43

1.46 ГБ

В этой теме нет новых непрочитанных сообщений. Мой безумный дневник / My Mad Fat Diary [S01] (Бен Карон, Тим Кирби) [драма, комедия, 2013] HDTVRip [ViruseProject]

Dracon

90 | 7

3.32 ГБ

В этой теме нет новых непрочитанных сообщений. Мой безумный дневник / My Mad Fat Diary [s02] (Алекс Винклер, Бенжамин Карон, Тим Кирби) [драма, комедия, 2014] HDTVRip [ViruseProject]

Dracon

24 | 6

5.21 ГБ

В этой теме нет новых непрочитанных сообщений. Дневник наемного убийцы / Diary of a Hitman [триллер, драма, криминал, 1991] HDTVRip, Dvo [НТВ+]

salma3

22 | 3

1.47 ГБ

В этой теме нет новых непрочитанных сообщений. Дневник девочки-подростка / The Diary of a Teenage Girl [Драма, мелодрама, 2015] BDRip 720p, Mvo [iTunes]

Dracon

7 | 1

4.64 ГБ

В этой теме нет новых непрочитанных сообщений. Дневник девочки-подростка / The Diary of a Teenage Girl [Драма, мелодрама, 2015] BDRip 1080p, Mvo [iTunes]

Dracon

38 | 3

7.92 ГБ


Начать новую тему Ответить на тему  [ 1 сообщение ] 




Для Мосгорсуда, Роскомнадзора и рекламодателей:: mosgorsud-torrent[собачка]yandex.ru