Торрент файл
скачать торрент магнет ссылка Добавлен: 01 апр 2012, 17:34
Размер: 2.19 ГБ
Сидеров: 20
Личеров: 5
Автор

СообщениеДобавлено: 01 апр 2012, 17:34 

Не в сети
Супермодератор
Аватара пользователя
Дата регистрации:
11 апр 2010, 18:10
Спасибо: 5960 / 7
Сообщения: 56770
[b]Нью-Йорк, Нью-Йорк / Synecdoche, New York[/b]


Перевод: Профессиональный (многоголосый закадровый)
Субтитры: отсутствуют
Формат: HDRip-AVC, MKV, H.264, AC3

Страна: США

Режиссер: Чарли Кауфман
Жанр: драма, комедия
Продолжительность: 02:03:49
Год выпуска: 2008

В ролях: Филип Сеймур Хоффман, Кэтрин Кинер, Сэди Голдштейн, Том Нунен, Питер Фридман, Чарльз Текман, Джош Пэйс, Дэниэл Лондон, Роберт Сиэй, Мишель Уильямс.

Описание: Директор театра в творческом кризисе пытается разобраться со своей жизнью и окружающими его женщинами. Наконец, посчитав, что не стоит тратить свою жизнь впустую, он решает поставить «важную и искреннюю пьесу», для этой цели воздвигая настоящую живую модель Нью-Йорка в заброшенном складе. Он переживает муки любви и страдает от непонятных болезней…



Видео: 1264x540 (2.35:1), 23.976 fps, AVC MPEG-4 High@L4.1 ~1630 kbps avg, 0.100 bit/pixel
Аудио #1: русский48 kHz, AC3 Dolby Digital, 3/2 (L,C,R,l,r) + LFE ch, ~448 kbps avg [Профессиональный (многоголосый закадровый)]
Аудио #2: английский48 kHz, AC3 Dolby Digital, 3/2 (L,C,R,l,r) + LFE ch, ~448 kbps avg [оригинал]


General
Unique ID: 194841541611746873894804904789712342632 (0x92951DAE3F7D02A09D8BDBA325A88E6
Complete name: D:\Synecdoche.New.York.2008.P.HDRip.mkv
Format: Matroska
Format version: Version 2
File size: 2.19 GiB
Duration: 2h 3mn
Overall bit rate: 2 527 Kbps
Movie name:Synecdoche, New York (200
Encoded date: UTC 2012-02-22 17:49:50
Writing application: mkvmerge v5.0.1 ('Es ist Sommer') built on Oct 24 2011 19:45:06
Writing library: libebml v1.2.2 + libmatroska v1.3.0

Video
ID: 1
Format: AVC
Format/Info: Advanced Video Codec
Format profile: High@L4.1
Format settings, CABAC: Yes
Format settings, ReFrames: 9 frames
Muxing mode: Header stripping
Codec ID: V_MPEG4/ISO/AVC
Duration: 2h 3mn
Bit rate: 1 630 Kbps
Width: 1 264 pixels
Height: 540 pixels
Display aspect ratio: 2.35:1
Frame rate: 23.976 fps
Color space: YUV
Chroma subsampling: 4:2:0
Bit depth: 8 bits
Scan type: Progressive
Bits/(Pixel*Frame): 0.100
Stream size: 1.37 GiB (63%)
Writing library: x264 core 113 r1884 7313bb5
Encoding settings: cabac=1 / ref=9 / deblock=1:-2:-1 / analyse=0x3:0x113 / me=umh / subme=10 / psy=1 / psy_rd=1.00:0.20 / mixed_ref=1 / me_range=32 / chroma_me=1 / trellis=2 / 8x8dct=1 / cqm=0 / deadzone=21,11 / fast_pskip=1 / chroma_qp_offset=-3 / threads=3 / sliced_threads=0 / nr=0 / decimate=1 / interlaced=0 / constrained_intra=0 / bframes=8 / b_pyramid=2 / b_adapt=2 / b_bias=0 / direct=3 / weightb=1 / open_gop=0 / weightp=2 / keyint=250 / keyint_min=23 / scenecut=45 / intra_refresh=0 / rc_lookahead=40 / rc=2pass / mbtree=1 / bitrate=1630 / ratetol=1.0 / qcomp=0.65 / qpmin=0 / qpmax=69 / qpstep=4 / cplxblur=20.0 / qblur=0.5 / vbv_maxrate=50000 / vbv_bufsize=62500 / nal_hrd=none / ip_ratio=1.40 / aq=2:1.00
Default: Yes
Forced: No
Matrix coefficients: BT.709-5, BT.1361, IEC 61966-2-4 709, SMPTE RP177

Audio #1
ID: 2
Format: AC-3
Format/Info: Audio Coding 3
Mode extension: CM (complete main)
Muxing mode: Header stripping
Codec ID: A_AC3
Duration: 2h 3mn
Bit rate mode: Constant
Bit rate: 448 Kbps
Channel(s): 6 channels
Channel positions: Front: L C R, Side: L R, LFE
Sampling rate: 48.0 KHz
Bit depth: 16 bits
Compression mode: Lossy
Stream size: 397 MiB (18%)
Title: Профессиональный (многоголосый, закадровый) - R5 [лицензия]
Language: Russian
Default: Yes
Forced: No

Audio #2
ID: 3
Format: AC-3
Format/Info: Audio Coding 3
Mode extension: CM (complete main)
Muxing mode: Header stripping
Codec ID: A_AC3
Duration: 2h 3mn
Bit rate mode: Constant
Bit rate: 448 Kbps
Channel(s): 6 channels
Channel positions: Front: L C R, Side: L R, LFE
Sampling rate: 48.0 KHz
Bit depth: 16 bits
Compression mode: Lossy
Stream size: 397 MiB (18%)
Title: Original track
Language: English
Default: No
Forced: No








Поделиться:




реклама партнёра


Вернуться к началу
 Профиль Отправить личное сообщение  
 
   Похожие торренты   Автор   Торрент   Размер 
В этой теме нет новых непрочитанных сообщений. Нью-Йорк, Нью-Йорк / Synecdoche, New York [комедия, драма, 2008] HDRip, Mvo

salma3

23 | 7

1.85 ГБ

В этой теме нет новых непрочитанных сообщений. Нью-Йорк, Нью-Йорк / Synecdoche, New York [Комедия, драма, 2008] BDRip 720p, Mvo+Sub

salma3

71 | 6

4.36 ГБ

В этой теме нет новых непрочитанных сообщений. Гарри и Уолтер едут в Нью-Йорк / Harry and Walter Go to New York [комедия, криминал, 1976] DVDRip, Mvo

salma3

215 | 43

1.47 ГБ

В этой теме нет новых непрочитанных сообщений. Рождение мафии: Нью-Йорк / The Making of the Mob: New York [S01] (Джон Илер) [драма, криминал, триллер, 2015] WEB-DL 1080p [LostFilm]

Dracon

270 | 179

14.48 ГБ

В этой теме нет новых непрочитанных сообщений. Рождение мафии: Нью-Йорк / The Making of the Mob: New York [01x01-08 из 08] (Джон Илер) [драма, криминал, триллер, 2015] WEB-DL 720p [LostFilm]

Dracon

242 | 225

10.09 ГБ

В этой теме нет новых непрочитанных сообщений. Рождение мафии: Нью-Йорк / The Making of the Mob: New York [Season 1, episodes 1-8 of 8] (Джон Илер) [драма, криминал, триллер, 2015] WEB-DLRip [LostFilm]

Dracon

296 | 113

3.74 ГБ

В этой теме нет новых непрочитанных сообщений. Аномализа / Anomalisa (Дьюк Джонсон, Чарли Кауфман) [мультфильм, драма, комедия, 2015] DVDScr, dvo

Dracon

786 | 71

1.36 ГБ


Начать новую тему Ответить на тему  [ 1 сообщение ] 




Для Мосгорсуда, Роскомнадзора и рекламодателей:: mosgorsud-torrent[собачка]yandex.ru