Торрент файл
скачать торрент магнет ссылка Добавлен: 01 апр 2012, 17:26
Размер: 1.36 ГБ
Сидеров: 19
Личеров: 6
Автор

СообщениеДобавлено: 01 апр 2012, 17:26 

Не в сети
Супермодератор
Аватара пользователя
Дата регистрации:
11 апр 2010, 18:10
Спасибо: 5801 / 7
Сообщения: 56779
[b]Класс / Klass[/b]


Слоган: Я не умру вам назло…

Перевод: Любительский (одноголосый) [Киноворлд]
Cубтитры: Русские
Формат: HDRip- AVC, MKV, H.264, AC3
Страна: Эстония
Режиссер: Ильмар Рааг
Жанр: драма
Продолжительность: 01:37:31
Год выпуска: 2007

В ролях: Валло Кирс, Пярт Уусберг, Лаури Педайя, Паула Солвак, Микк Мяги, Риина Риес, Йонас Паас, Вирго Эрнитс

Описание: Обычная эстонская школа, выпускной класс. Парень по имени Йозеп постоянно терпит насмешки и издевательства со стороны одноклассников. Никогда не отвечая на выпады, он провоцирует их заходить в глупых «шутках» все дальше и дальше, до тех пор, пока за него не заступился один из бывших насмешников — Каспар. В классе начинается противостояние, которое постепенно накаляется, приближая неминуемую развязку…



Видео: 720x576@1024x576 (16:9), 25.000 fps, AVC (х264) High@L3.1, ~ 1602 Kbps, 0.155 bit/pixel
Аудио#1: Русский: 48 kHz, AC3, 2 ch, ~ 192 kbps [Любительский (одноголосый)]
Аудио#2: Эстонский: 48 kHz, AC3, 2 ch, ~ 192 kbps [Оригинал]

Общее
Уникальный идентификатор: 250021080918764445685907073584636825617 (0xBC184F037C91AC6B858A1883DC1F1011)
Полное имя: klass_[tfile.ru].mkv
Формат: Matroska
Версия формата: Version 1
Размер файла: 1,36 Гбайт
Продолжительность: 1 ч. 37 м.
Общий поток: 1989 Кбит/сек
Дата кодирования: UTC 2009-02-17 04:37:03
Программа кодирования: mkvmerge v2.4.2 ('Oh My God') built on Jan 18 2009 17:30:28
Библиотека кодирования: libebml v0.7.7 + libmatroska v0.8.1

Видео
Идентификатор: 1
Формат: AVC
Формат/Информация: Advanced Video Codec
Профиль формата: High@L3.1
Параметр CABAC формата: Да
Параметр ReFrames формата: 8 кадров
Идентификатор кодека: V_MPEG4/ISO/AVC
Продолжительность: 1 ч. 37 м.
Битрейт: 1602 Кбит/сек
Ширина: 720 пикселей
Высота: 576 пикселей
Соотношение сторон: 16:9
Соотношение сторон в оригинале: 5:4
Частота кадров: 25,000 кадров/сек
Стандарт вещания: PAL
Цветовое пространство: YUV
Субдискретизация насыщенности: 4:2:0
Битовая глубина: 8 бит
Тип развёртки: Прогрессивная
Бит/(Пиксели*Кадры): 0.155
Размер потока: 1,07 Гбайт (79%)
Библиотека кодирования: x264 core 66 r1109M 75b495f
Настройки программы: cabac=1 / ref=8 / deblock=1:-1:-1 / analyse=0x3:0x113 / me=umh / subme=8 / psy_rd=1.0:0.0 / mixed_ref=1 / me_range=16 / chroma_me=1 / trellis=2 / 8x8dct=1 / cqm=0 / deadzone=21,11 / chroma_qp_offset=-2 / threads=6 / nr=0 / decimate=1 / mbaff=0 / bframes=3 / b_pyramid=0 / b_adapt=2 / b_bias=0 / direct=3 / wpredb=1 / keyint=250 / keyint_min=25 / scenecut=40(pre) / rc=2pass / bitrate=1602 / ratetol=1.0 / qcomp=0.60 / qpmin=10 / qpmax=51 / qpstep=4 / cplxblur=20.0 / qblur=0.5 / vbv_maxrate=17500 / vbv_bufsize=14000 / ip_ratio=1.40 / pb_ratio=1.30 / aq=1:1.00
Язык: English

Аудио #1
Идентификатор: 2
Формат: AC-3
Формат/Информация: Audio Coding 3
Расширение режима: CM (complete main)
Идентификатор кодека: A_AC3
Продолжительность: 1 ч. 37 м.
Вид битрейта: Постоянный
Битрейт: 192 Кбит/сек
Каналы: 2 канала
Расположение каналов: Front: L R
Частота: 48,0 КГц
Битовая глубина: 16 бит
Метод сжатия: С потерями
Размер потока: 134 Мбайт (10%)
Язык: Russian

Аудио #2
Идентификатор: 3
Формат: AC-3
Формат/Информация: Audio Coding 3
Расширение режима: CM (complete main)
Идентификатор кодека: A_AC3
Продолжительность: 1 ч. 37 м.
Вид битрейта: Постоянный
Битрейт: 192 Кбит/сек
Каналы: 2 канала
Расположение каналов: Front: L R
Частота: 48,0 КГц
Битовая глубина: 16 бит
Метод сжатия: С потерями
Размер потока: 134 Мбайт (10%)
Язык: Estonian

Текст
Идентификатор: 4
Формат: UTF-8
Идентификатор кодека: S_TEXT/UTF8
Идентификатор кодека/Информация: UTF-8 Plain Text
















[/shots]

















Поделиться:




реклама партнёра


Вернуться к началу
 Профиль Отправить личное сообщение  
 
   Похожие торренты   Автор   Торрент   Размер 
В этой теме нет новых непрочитанных сообщений. Класс / Class [драма, мелодрама, комедия, 1983] HDRip, Dvo

salma3

32 | 3

1.46 ГБ

В этой теме нет новых непрочитанных сообщений. Класс убийц / Ansatsu kyôshitsu the Movie / Assassination Classroom (Эйчиро Хасуми) [фантастика, комедия, приключения, 2015] HDRip, mvo

Dracon

353 | 27

1.41 ГБ

В этой теме нет новых непрочитанных сообщений. Класс коррекции [драма, 2014] WEBRip

Dracon

1465 | 41

1.37 ГБ

В этой теме нет новых непрочитанных сообщений. Класс коррекции [драма, 2014] DVD5 [Лицензия]

Dracon

180 | 23

4.1 ГБ

В этой теме нет новых непрочитанных сообщений. Класс коррекции (Иван И. Твердовский) [2014, драма, DVDRip | Лицензия]

Nickolas3435

409 | 18

754.95 МБ

В этой теме нет новых непрочитанных сообщений. Класс 1984 / Class of 1984 [триллер, драма, криминал, 1982] DVDRip, Avo

salma3

78 | 8

1.37 ГБ

В этой теме нет новых непрочитанных сообщений. Класс 1984 / Class of 1984 [боевик, триллер, драма, криминал, 1982] BDRip 720p, Avo

salma3

13 | 16

4.67 ГБ


Начать новую тему Ответить на тему  [ 1 сообщение ] 




Для Мосгорсуда, Роскомнадзора и рекламодателей:: mosgorsud-torrent[собачка]yandex.ru