Торрент файл
скачать торрент магнет ссылка Добавлен: 01 апр 2012, 17:26
Размер: 2.3 ГБ
Сидеров: 60
Личеров: 5
Автор

СообщениеДобавлено: 01 апр 2012, 17:26 

Не в сети
Супермодератор
Аватара пользователя
Дата регистрации:
11 апр 2010, 18:10
Спасибо: 5921 / 7
Сообщения: 56776
[b]Академия смерти / NaPolA[/b]


Слоган: Men Make History. We Make The Men.

Перевод: Профессиональный (многоголосый, закадровый) [Лицензия]
Cубтитры: Английские
Формат: HDRip- AVC, MKV, H.264, AC3
Страна: Германия
Режиссер: Деннис Ганзель
Жанр: драма, военный
Продолжительность: 01:54:34
Год выпуска: 2004

В ролях: Макс Римельт, Том Шиллинг, Йонас Егермайр, Леон А. Керстен, Томас Дрехзель, Мартин Горес, Флориан Штеттер, Девид Штрисов, Йоахим Биссмайер, Михаэль Шенк

Описание: В моих бастионах мы вырастим молодежь, которая заставит весь мир содрогаться от ужаса. Мне нужны жестокие, требующие беспрекословного подчинения, бесстрашные и безжалостные юноши… Мне нужна сильная и красивая молодежь… Так я положу начало новому миру! — Адольф Гитлер.

Для осуществления навязчивой идеи Гитлера были созданы Национально-политические академии — система элитных школ под сокращенным названием «НАПОЛА». Там готовили расу новых господ, будущих гауляйтеров Минска или Лондона. До последнего времени о существовании этих школ в Германии не принято было вспоминать, потому что бывшие выпускники НАПОЛЫ до сих пор занимают высокие посты в политике и бизнесе.

Берлин, 1942 год. Шестнадцатилетний Фридрих получает лестное предложение стать учеником НАПОЛЫ, где элита завтрашнего дня штудирует «Нибелунгов», бегает кроссы, охотится с боевым оружием на русских пленных… Но вскоре первоначальные восторги уступают место сомнениям…




Видео: 1280x544 (2,35:1), 24.000 fps, AVC (х264) High@L4.1, ~ 2051 Kbps, 0.123 bit/pixel
Аудио#1: Русский: 48 kHz, AC3, 6 ch, ~ 384 kbps [Профессиональный (многоголосый, закадровый)]
Аудио#2: Немецкий: 48 kHz, AC3, 6 ch, ~ 384 kbps [Оригинал]

Общее
Уникальный идентификатор: 240748385575692424690560519738568142827 (0xB51E73D60305C08887828653F37AEFEB)
Полное имя: C:\Users\Zimm\Desktop\фильмы\napola_[tfile.ru].mkv
Формат: Matroska
Версия формата: Version 2
Размер файла: 2,30 Гбайт
Продолжительность: 1 ч. 54 м.
Общий поток: 2876 Кбит/сек
Дата кодирования: UTC 2010-05-18 10:18:53
Программа кодирования: mkvmerge v3.0.0 ('Hang up your Hang-Ups') built on Dec 12 2009 15:20:35
Библиотека кодирования: libebml v0.7.9 + libmatroska v0.8.1

Видео
Идентификатор: 1
Формат: AVC
Формат/Информация: Advanced Video Codec
Профиль формата: High@L4.1
Параметр CABAC формата: Да
Параметр ReFrames формата: 5 кадров
Идентификатор кодека: V_MPEG4/ISO/AVC
Продолжительность: 1 ч. 54 м.
Битрейт: 2051 Кбит/сек
Ширина: 1280 пикселей
Высота: 544 пикселя
Соотношение сторон: 2,35:1
Частота кадров: 24,000 кадра/сек
Цветовое пространство: YUV
Субдискретизация насыщенности: 4:2:0
Битовая глубина: 8 бит
Тип развёртки: Прогрессивная
Бит/(Пиксели*Кадры): 0.123
Размер потока: 1,64 Гбайт (71%)
Библиотека кодирования: x264 core 88 r1471 1144615
Настройки программы: cabac=1 / ref=5 / deblock=1:-1:-1 / analyse=0x3:0x133 / me=umh / subme=10 / psy=1 / psy_rd=1.00:0.15 / mixed_ref=1 / me_range=32 / chroma_me=1 / trellis=2 / 8x8dct=1 / cqm=0 / deadzone=21,11 / fast_pskip=1 / chroma_qp_offset=-3 / threads=6 / sliced_threads=0 / nr=0 / decimate=0 / mbaff=0 / constrained_intra=0 / bframes=3 / b_pyramid=2 / b_adapt=2 / b_bias=0 / direct=3 / wpredb=1 / wpredp=2 / keyint=250 / keyint_min=25 / scenecut=40 / intra_refresh=0 / rc_lookahead=40 / rc=crf / mbtree=1 / crf=20.0 / qcomp=0.60 / qpmin=10 / qpmax=51 / qpstep=4 / vbv_maxrate=50000 / vbv_bufsize=50000 / ip_ratio=1.40 / aq=1:1.00
Язык: English

Аудио #1
Идентификатор: 2
Формат: AC-3
Формат/Информация: Audio Coding 3
Расширение режима: CM (complete main)
Идентификатор кодека: A_AC3
Продолжительность: 1 ч. 54 м.
Вид битрейта: Постоянный
Битрейт: 384 Кбит/сек
Каналы: 6 каналов
Расположение каналов: Front: L C R, Side: L R, LFE
Частота: 48,0 КГц
Битовая глубина: 16 бит
Метод сжатия: С потерями
Задержка видео: 500 мс.
Размер потока: 315 Мбайт (13%)
Язык: Russian

Аудио #2
Идентификатор: 3
Формат: AC-3
Формат/Информация: Audio Coding 3
Расширение режима: CM (complete main)
Идентификатор кодека: A_AC3
Продолжительность: 1 ч. 54 м.
Вид битрейта: Постоянный
Битрейт: 384 Кбит/сек
Каналы: 6 каналов
Расположение каналов: Front: L C R, Side: L R, LFE
Частота: 48,0 КГц
Битовая глубина: 16 бит
Метод сжатия: С потерями
Размер потока: 315 Мбайт (13%)
Язык: German

Текст
Идентификатор: 4
Формат: UTF-8
Идентификатор кодека: S_TEXT/UTF8
Идентификатор кодека/Информация: UTF-8 Plain Text
Язык: English
















Поделиться:




реклама партнёра


Вернуться к началу
 Профиль Отправить личное сообщение  
 
   Похожие торренты   Автор   Торрент   Размер 
В этой теме нет новых непрочитанных сообщений. Секреты войны / Oorlogsgeheimen / Secrets of War (Деннис Ботс) [драма, военный, семейный, 2014] BDRip 720p, Avo+Sub

Dracon

42 | 2

5.27 ГБ

В этой теме нет новых непрочитанных сообщений. Силы смерти / Мне отмщение / Death Force / Vengeance is Mine [боевик, драма, криминал, военный, 1978] DVDRip, Avo

salma3

11 | 2

1.68 ГБ

В этой теме нет новых непрочитанных сообщений. Глаза звезды / Starry Eyes (Кевин Колш, Деннис Уидмайер) [ужасы, 2014] HDRip, dvo

Dracon

6 | 2

1.36 ГБ

В этой теме нет новых непрочитанных сообщений. Академия вампиров / Vampire Academy (Марк Уотерс) [ужасы, фэнтези, боевик, 2014] HDRip, Dub [iTunes]

salma3

39 | 1

1.37 ГБ

В этой теме нет новых непрочитанных сообщений. Курсанты [01-10 из 10] (Андрей Кавун) [Драма, военный, 2004] HDTVRip

Dracon

66 | 18

5.37 ГБ

В этой теме нет новых непрочитанных сообщений. Вавилон / Babilonia [01-04 из 161] (Деннис Карвальо) [2015, Криминал, драма, SATRip | AveBrasil]

Nickolas3435

1 | 3

3.11 ГБ

В этой теме нет новых непрочитанных сообщений. Паутина смерти / Satsujin Net [ужасы, триллер, 2004] DVDRip, Mvo

salma3

19 | 2

690.3 МБ


Начать новую тему Ответить на тему  [ 1 сообщение ] 




Для Мосгорсуда, Роскомнадзора и рекламодателей:: mosgorsud-torrent[собачка]yandex.ru