Торрент файл
скачать торрент магнет ссылка Добавлен: 01 апр 2012, 17:25
Размер: 2.15 ГБ
Сидеров: 0
Личеров: 7
Автор

СообщениеДобавлено: 01 апр 2012, 17:25 

Не в сети
Супермодератор
Аватара пользователя
Дата регистрации:
11 апр 2010, 18:10
Спасибо: 5802 / 7
Сообщения: 56779
[b]Бен Икс / Ben X[/b]


Слоган: Everything's dare

Перевод: Любительский (одноголосый)
Cубтитры: Английские
Формат: HDRip- AVC, MKV, H.264, AC3
Страна: Нидерланды, Бельгия
Режиссер: Ник Бальтазар
Жанр: драма
Продолжительность: 01:33:12
Год выпуска: 2007

В ролях: Грег Тимерманс, Лаура Верлиндер, Марике Пиной, Пол Госсен, Титус Де Вогдт, Сизар Де Саттер

Описание: Картина в полной мере раскрывает проблему детей с синдромом Аспергера. Герой, страдающий этой болезнью, настолько ушёл в мир MMORPG, что грань между реальным и виртуальным миром у него практически стёрлась. Играл главный герой в Archlord, и вся картина построена на смеси кадров из игры и реальной жизни.



Видео: 1232x668 (16:9), 24.000 fps, AVC (х264) High@L4.0, ~ 2345 Kbps, 0.119 bit/pixel
Аудио#1: Русский: 48 kHz, AC3, 6 ch, ~ 448 kbps [Любительский (одноголосый)]
Аудио#2: Голландский: 48 kHz, AC3, 6 ch, ~ 448 kbps [Оригинал]

Общее
Уникальный идентификатор: 178803663575816177859750393545974513885 (0x8684553E7BE91BD58E46B2FDEEBA80DD)
Полное имя: D:\!!! Загрузки\ben_x_[tfile.ru].mkv
Формат: Matroska
Версия формата: Version 2
Размер файла: 2,15 Гбайт
Продолжительность: 1 ч. 33 м.
Общий поток: 3307 Кбит/сек
Кодирование произвёл: [tRuAVC]Skazhutin
Дата кодирования: UTC 2010-02-24 08:02:58
Программа кодирования: mkvmerge v3.2.0 ('Beginnings') built on Feb 12 2010 16:46:17
Библиотека кодирования: libebml v0.7.9 + libmatroska v0.8.1
TITLE: Ben X (2007) [tRuAVC]
DATE_RELEASED: February 24th 2010
COMMENT: HDRip/x264/AC3 (Source: AVC; 1920x1040 (16:9); 10692 Kbps; 24 fps)
Attachment: Yes

Видео
Идентификатор: 1
Формат: AVC
Формат/Информация: Advanced Video Codec
Профиль формата: High@L4.0
Параметр CABAC формата: Да
Параметр ReFrames формата: 8 кадров
Идентификатор кодека: V_MPEG4/ISO/AVC
Продолжительность: 1 ч. 33 м.
Битрейт: 2345 Кбит/сек
Ширина: 1232 пикселя
Высота: 668 пикселей
Соотношение сторон: 16:9
Частота кадров: 24,000 кадра/сек
Цветовое пространство: YUV
Субдискретизация насыщенности: 4:2:0
Битовая глубина: 8 бит
Тип развёртки: Прогрессивная
Бит/(Пиксели*Кадры): 0.119
Размер потока: 1,53 Гбайт (71%)
Заголовок: 1232x668 (16:9); 2413 Kbps; 24 fps
Библиотека кодирования: x264 core 85 r1442kMod 781d300
Настройки программы: cabac=1 / ref=8 / deblock=1:0:0 / analyse=0x3:0x113 / me=umh / subme=9 / psy=1 / psy_rd=0.70:0.15 / mixed_ref=1 / me_range=32 / chroma_me=1 / trellis=2 / 8x8dct=1 / cqm=0 / deadzone=21,11 / fast_pskip=1 / chroma_qp_offset=-3 / threads=6 / sliced_threads=0 / nr=0 / decimate=1 / mbaff=0 / interlaced=0 / constrained_intra=0 / bframes=8 / b_pyramid=2 / b_adapt=2 / b_bias=0 / direct=3 / wpredb=1 / wpredp=2 / keyint=250 / keyint_min=25 / scenecut=45 / intra_refresh=0 / rc_lookahead=60 / rc=crf / mbtree=1 / crf=19.2000 / qcomp=0.65 / qpmin=10 / qpmax=51 / qpstep=4 / ip_ratio=1.40 / aq=1:1.00 / zones=129840,134229,q=30 / pulldown=0
Язык: Dutch
Коэффициенты матрицы: BT.709-5, BT.1361, IEC 61966-2-4 709, SMPTE RP177

Аудио #1
Идентификатор: 2
Формат: AC-3
Формат/Информация: Audio Coding 3
Расширение режима: CM (complete main)
Идентификатор кодека: A_AC3
Продолжительность: 1 ч. 33 м.
Вид битрейта: Постоянный
Битрейт: 448 Кбит/сек
Каналы: 6 каналов
Расположение каналов: Front: L C R, Side: L R, LFE
Частота: 48,0 КГц
Битовая глубина: 16 бит
Метод сжатия: С потерями
Размер потока: 299 Мбайт (14%)
Заголовок: AC3; 448 Kbps; CBR; 6 ch; VO
Язык: Russian

Аудио #2
Идентификатор: 3
Формат: AC-3
Формат/Информация: Audio Coding 3
Расширение режима: CM (complete main)
Идентификатор кодека: A_AC3
Продолжительность: 1 ч. 33 м.
Вид битрейта: Постоянный
Битрейт: 448 Кбит/сек
Каналы: 6 каналов
Расположение каналов: Front: L C R, Side: L R, LFE
Частота: 48,0 КГц
Битовая глубина: 16 бит
Метод сжатия: С потерями
Размер потока: 299 Мбайт (14%)
Заголовок: AC3; 448 Kbps; CBR; 6 ch; Original
Язык: Dutch

Текст
Идентификатор: 4
Формат: UTF-8
Идентификатор кодека: S_TEXT/UTF8
Идентификатор кодека/Информация: UTF-8 Plain Text
Язык: English
















Поделиться:




реклама партнёра


Вернуться к началу
 Профиль Отправить личное сообщение  
 
   Похожие торренты   Автор   Торрент   Размер 
В этой теме нет новых непрочитанных сообщений. Грэйси / Gracie [Драма, Спорт, 2007] HDRip, Mvo

salma3

0 | 2

1.47 ГБ

В этой теме нет новых непрочитанных сообщений. Рождество / This Christmas [Комедия, драма, 2007] HDRip-AVC, Mvo+Sub

salma3

13 | 2

2.79 ГБ

В этой теме нет новых непрочитанных сообщений. Её сердце / A Mighty Heart [триллер, драма, 2007] HDRip, Mvo

salma3

63 | 20

1.45 ГБ

В этой теме нет новых непрочитанных сообщений. 24 часа / 24 [S07] [Драма, Криминал, Детектив, 2007] HDRip, Mvo [NovaFilm]

salma3

9 | 7

8.36 ГБ

В этой теме нет новых непрочитанных сообщений. Потерянные в Манхеттене / Adrift in Manhattan [Драма, 2007] HDRip, Dvo

salma3

35 | 21

1.46 ГБ

В этой теме нет новых непрочитанных сообщений. Я знаю, кто убил меня / I Know Who Killed Me [Драма, Триллер, 2007] HDRip, Dub

salma3

4 | 2

1.46 ГБ

В этой теме нет новых непрочитанных сообщений. Серый человек / The Gray Man [триллер, детектив, драма, 2007] HDRip, Avo

salma3

3 | 3

1.46 ГБ


Начать новую тему Ответить на тему  [ 1 сообщение ] 




Для Мосгорсуда, Роскомнадзора и рекламодателей:: mosgorsud-torrent[собачка]yandex.ru