Торрент файл
скачать торрент магнет ссылка Добавлен: 01 апр 2012, 16:21
Размер: 1.45 ГБ
Сидеров: 42
Личеров: 11
Автор

СообщениеДобавлено: 01 апр 2012, 16:21 

Не в сети
Супермодератор
Аватара пользователя
Дата регистрации:
11 апр 2010, 18:10
Спасибо: 5962 / 7
Сообщения: 56762
Влечение / Partir


Перевод: Профессиональный (многоголосый, закадровый), cубтитры: отсутствуют
Формат: HDRip-AVC, MKV, H.264, AC3
Страна: Франция
Режиссер: Катрин Корсини
Жанр: драма, мелодрама
Продолжительность: 01:25:40
Год выпуска: 2009

В ролях: Кристин Скотт Томас, Серхи Лопес, Иван Атталь, Бернар Бланкан, Аладин Райбел, Александр Видал

Описание: Сюзанн — жена преуспевающего хирурга и мать двоих детей. Однообразие семейной жизни угнетает ее, и она решает вернуться к врачебной практике. Муж нанимает рабочего для обустройства кабинета. Жизнь Сюзанн, налаженная годами, рушится в один момент, когда между ней и строителем Иваном возникает непреодолимое влечение… Захочет ли она отказаться от благополучной жизни ради призрачного женского счастья?..



Видео: 1280 x 688 (1.86:1), 23.976 fps, AVC (х264) High@L4.1, ~ 2108 Kbps, 0.100 bit/pixel
Аудио: 48 kHz, AC3 Dolby Digital, 3/2 (L,C,R,l,r) + LFE ch, ~ 320 kbps avg


Рип: jeenart

General
Unique ID: 186834478321176638764270572236855590872 (0x8C8F02FB1E784301B6CFAAA1890C3FD
Complete name: F:\Мои релизы\Все релизы 10\vlechenie_[tfile.ru].mkv
Format: Matroska
File size: 1.45 GiB
Duration: 1h 25mn
Overall bit rate: 2 428 Kbps
Encoded date: UTC 2012-03-04 10:39:50
Writing application: mkvmerge v4.6.0 ('Still Crazy After All These Years') сборка от Apr1 2011 21:01:49
Writing library: libebml v1.2.0 + libmatroska v1.1.0

Video
ID: 1
Format: AVC
Format/Info: Advanced Video Codec
Format profile: High@L4.1
Format settings, CABAC: Yes
Format settings, ReFrames: 4 frames
Codec ID: V_MPEG4/ISO/AVC
Duration: 1h 25mn
Bit rate: 2 108 Kbps
Width: 1 280 pixels
Height: 688 pixels
Display aspect ratio: 1.860
Frame rate: 24.000 fps
Color space: YUV
Chroma subsampling: 4:2:0
Bit depth: 8 bits
Scan type: Progressive
Bits/(Pixel*Frame): 0.100
Stream size: 1.23 GiB (85%)
Writing library: x264 core 115 r1937 aa21558
Encoding settings: cabac=1 / ref=3 / deblock=1:-1:-1 / analyse=0x3:0x113 / me=hex / subme=7 / psy=1 / psy_rd=1.00:0.10 / mixed_ref=1 / me_range=16 / chroma_me=1 / trellis=1 / 8x8dct=1 / cqm=0 / deadzone=21,11 / fast_pskip=1 / chroma_qp_offset=-3 / threads=6 / sliced_threads=0 / nr=0 / decimate=1 / interlaced=0 / bluray_compat=0 / constrained_intra=0 / bframes=3 / b_pyramid=2 / b_adapt=1 / b_bias=0 / direct=3 / weightb=1 / open_gop=0 / weightp=2 / keyint=250 / keyint_min=23 / scenecut=40 / intra_refresh=0 / rc_lookahead=40 / rc=2pass / mbtree=1 / bitrate=2108 / ratetol=1.0 / qcomp=0.60 / qpmin=0 / qpmax=69 / qpstep=4 / cplxblur=20.0 / qblur=0.5 / ip_ratio=1.40 / aq=1:1.00

Audio
ID: 2
Format: AC-3
Format/Info: Audio Coding 3
Mode extension: CM (complete main)
Codec ID: A_AC3
Duration: 1h 25mn
Bit rate mode: Constant
Bit rate: 320 Kbps
Channel(s): 6 channels
Channel positions: Front: L C R, Side: L R, LFE
Sampling rate: 48.0 KHz
Bit depth: 16 bits
Compression mode: Lossy
Stream size: 196 MiB (13%)












Поделиться:




реклама партнёра


Вернуться к началу
 Профиль Отправить личное сообщение  
 
   Похожие торренты   Автор   Торрент   Размер 
В этой теме нет новых непрочитанных сообщений. Смертельное влечение / Heathers [триллер, комедия, криминал, 1988] HDRip, Mvo

salma3

87 | 6

1.45 ГБ

В этой теме нет новых непрочитанных сообщений. Роковое влечение / Eperdument [драма, триллер, 2016] WEB-DLRip, Mvo [iTunes]

salma3

1845 | 57

1.46 ГБ

В этой теме нет новых непрочитанных сообщений. Роковое влечение / Eperdument [драма, триллер, 2016] WEB-DL 1080p, Mvo [iTunes]

salma3

66 | 15

3.75 ГБ

В этой теме нет новых непрочитанных сообщений. Три идиота / 3 Idiots [драма, мелодрама, комедия, 2009] HDRip-AVC, Mvo

salma3

55 | 11

1.45 ГБ

В этой теме нет новых непрочитанных сообщений. Жертва / Kurbaan [боевик, триллер, драма, мелодрама, 2009] HDRip, Mvo [Zee TV]

salma3

15 | 4

1.46 ГБ

В этой теме нет новых непрочитанных сообщений. Влечение / Impulse [Триллер, детектив, 2008] HDTV 1080i, Mvo

salma3

116 | 24

5.57 ГБ

В этой теме нет новых непрочитанных сообщений. Смертельное влечение / Heathers [триллер, комедия, криминал, 1988] BDRip 1080p, Mvo

salma3

0 | 0

7.27 ГБ


Начать новую тему Ответить на тему  [ 1 сообщение ] 




Для Мосгорсуда, Роскомнадзора и рекламодателей:: mosgorsud-torrent[собачка]yandex.ru