Торрент файл
скачать торрент магнет ссылка Добавлен: 01 апр 2012, 16:17
Размер: 1.45 ГБ
Сидеров: 52
Личеров: 5
Автор

СообщениеДобавлено: 01 апр 2012, 16:17 

Не в сети
Супермодератор
Аватара пользователя
Дата регистрации:
11 апр 2010, 18:10
Спасибо: 5801 / 7
Сообщения: 56779
Дом духов / The House of the Spirits


Перевод: Профессиональный (многоголосый, закадровый), cубтитры: отсутствуют
Формат: DVDRip-AVC, MKV, H.264, AC3
Страна: США, Германия, Дания, Португалия
Режиссер: Билле Аугуст
Жанр: драма, мелодрама
Продолжительность: 02:20:10
Год выпуска: 1993

В ролях: Мерил Стрип, Гленн Клоуз, Джереми Айронс, Вайнона Райдер, Антонио Бандерас, Мария Кончита Алонсо, Винсент Галло, Ян Никлас, Хоакин Мартинес, Сарита Чудхури, Тери Поло, Мириам Колон, Ванесса Редгрэйв, Армин Мюллер-Шталь

Описание: Мстить или прощать? История о беспокойной жизни нескольких поколений одного знатного и богатого чилийского рода с 1926 года до начала 70-х годов. В доме крупного чилийского землевладельца, пережившего не одну беду — от «золотой лихорадки» до военного переворота Пиночета, не понаслышке знают, что такое мужество и огромная сила духа...



Видео: 720 x 304 (2:35:1), 25.000 fps, AVC (х264) High@L4.1, ~ 1292 Kbps, 0.236 bit/pixel
Аудио: 48 kHz, AC3 Dolby Digital, 2/0 (L,R) ch, ~192 kbps avg


Рип: jeenart

General
Unique ID: 207700052304486853207129679814650294037 (0x9C41933467E95294804CAAFE01C0EF15)
Complete name: F:\Мои релизы\Все релизы 10\dom_duhov_[tfile.ru].mkv
Format: Matroska
File size: 1.45 GiB
Duration: 2h 20mn
Overall bit rate: 1 486 Kbps
Encoded date: UTC 2012-03-09 08:12:17
Writing application: mkvmerge v4.6.0 ('Still Crazy After All These Years') сборка от Apr1 2011 21:01:49
Writing library: libebml v1.2.0 + libmatroska v1.1.0

Video
ID: 1
Format: AVC
Format/Info: Advanced Video Codec
Format profile: High@L4.1
Format settings, CABAC: Yes
Format settings, ReFrames: 4 frames
Codec ID: V_MPEG4/ISO/AVC
Duration: 2h 20mn
Bit rate: 1 292 Kbps
Width: 720 pixels
Height: 304 pixels
Display aspect ratio: 2.35:1
Frame rate: 25.000 fps
Color space: YUV
Chroma subsampling: 4:2:0
Bit depth: 8 bits
Scan type: Progressive
Bits/(Pixel*Frame): 0.236
Stream size: 1.24 GiB (85%)
Writing library: x264 core 115 r1937 aa21558
Encoding settings: cabac=1 / ref=3 / deblock=1:-1:-1 / analyse=0x3:0x113 / me=hex / subme=7 / psy=1 / psy_rd=1.00:0.10 / mixed_ref=1 / me_range=16 / chroma_me=1 / trellis=1 / 8x8dct=1 / cqm=0 / deadzone=21,11 / fast_pskip=1 / chroma_qp_offset=-3 / threads=6 / sliced_threads=0 / nr=0 / decimate=1 / interlaced=0 / bluray_compat=0 / constrained_intra=0 / bframes=3 / b_pyramid=2 / b_adapt=1 / b_bias=0 / direct=3 / weightb=1 / open_gop=0 / weightp=2 / keyint=250 / keyint_min=25 / scenecut=40 / intra_refresh=0 / rc_lookahead=40 / rc=2pass / mbtree=1 / bitrate=1292 / ratetol=1.0 / qcomp=0.60 / qpmin=0 / qpmax=69 / qpstep=4 / cplxblur=20.0 / qblur=0.5 / ip_ratio=1.40 / aq=1:1.00

Audio
ID: 2
Format: AC-3
Format/Info: Audio Coding 3
Mode extension: CM (complete main)
Codec ID: A_AC3
Duration: 2h 20mn
Bit rate mode: Constant
Bit rate: 192 Kbps
Channel(s): 2 channels
Channel positions: Front: L R
Sampling rate: 48.0 KHz
Bit depth: 16 bits
Compression mode: Lossy
Stream size: 192 MiB (13%)















Поделиться:




реклама партнёра


Вернуться к началу
 Профиль Отправить личное сообщение  
 
   Похожие торренты   Автор   Торрент   Размер 
В этой теме нет новых непрочитанных сообщений. Дом духов / The House of the Spirits [драма, мелодрама, 1993] HDRip, Avo

salma3

42 | 10

2.08 ГБ

В этой теме нет новых непрочитанных сообщений. Neutral Spirits - Neutral Spirits [1972, Psychedelic, Acid Rock, MP3]

PriZraK

1 | 2

64.91 МБ

В этой теме нет новых непрочитанных сообщений. Зависимая / Addicted (Билле Вудрафф) [Триллер, драма, 2014] WEB-DL 720p, avo

Dracon

222 | 17

3.51 ГБ

В этой теме нет новых непрочитанных сообщений. Зависимая / Addicted (Билле Вудрафф) [Триллер, драма, 2014] WEB-DLRip, avo

Dracon

1668 | 75

1.47 ГБ

В этой теме нет новых непрочитанных сообщений. Зависимая / Addicted (Билле Вудрафф) [Триллер, драма, 2014] WEB-DL 1080p, avo

Dracon

234 | 12

4.53 ГБ

В этой теме нет новых непрочитанных сообщений. Мистер Джонс / Mr. Jones [драма, мелодрама, 1993] DVDRip, Mvo

salma3

22 | 2

1.36 ГБ

В этой теме нет новых непрочитанных сообщений. Праздник / Les marmottes [драма, мелодрама, комедия, 1993] DVDRip, Dvo

salma3

2 | 3

1.46 ГБ


Начать новую тему Ответить на тему  [ 1 сообщение ] 




Для Мосгорсуда, Роскомнадзора и рекламодателей:: mosgorsud-torrent[собачка]yandex.ru