Торрент файл
скачать торрент магнет ссылка Добавлен: 01 апр 2012, 16:15
Размер: 2.1 ГБ
Сидеров: 43
Личеров: 4
Автор

СообщениеДобавлено: 01 апр 2012, 16:15 

Не в сети
Супермодератор
Аватара пользователя
Дата регистрации:
11 апр 2010, 18:10
Спасибо: 5799 / 7
Сообщения: 56779
Ноттинг Хилл / Notting Hill


Перевод: Профессиональный (полное дублирование), cубтитры: отсутствуют
Формат: HDRip-AVC, MKV, H.264, AC3
Страна: США, Великобритания
Режиссер: Роджер Мичелл
Жанр: мелодрама, комедия
Продолжительность: 02:03:57
Год выпуска: 1999

В ролях: Джулия Робертс, Хью Грант, Ричард МакКейб, Рис Иванс, Джеймс Дрейфус, Дилан Моран, Роджер Фрост, Генри Гудман, Джулиан Райнд-Татт, Лорелей Кинг

Описание: Романтическая комедия рассказывает историю о скромном владельце книжного магазина в Ноттинг Хилл (один из районов Лондона), жизнь которого резко меняется после того, как однажды кинозвезда заходит к нему в маленький книжный магазинчик, чтобы купить путеводитель…



Видео: 1280 x 536 (2.35:1), 23.976 fps, AVC (х264) High@L4.1, ~ 1980 Kbps, 0.120 bit/pixel
Аудио: 48 kHz, AC3 Dolby Digital, 3/2 (L,C,R,l,r) + LFE ch, ~ 448 kbps avg


Рип: jeenart

General
Unique ID: 199613933041477914244054740527658239272 (0x962C3EBE9F08C072BCA6258C1173052
Complete name: F:\Мои релизы\Все релизы 10\hotting_hill_[tfile.ru].mkv
Format: Matroska
File size: 2.10 GiB
Duration: 2h 3mn
Overall bit rate: 2 429 Kbps
Encoded date: UTC 2012-03-16 07:48:38
Writing application: mkvmerge v4.6.0 ('Still Crazy After All These Years') сборка от Apr1 2011 21:01:49
Writing library: libebml v1.2.0 + libmatroska v1.1.0

Video
ID: 1
Format: AVC
Format/Info: Advanced Video Codec
Format profile: High@L4.1
Format settings, CABAC: Yes
Format settings, ReFrames: 4 frames
Format settings, GOP: M=4, N=32
Codec ID: V_MPEG4/ISO/AVC
Duration: 2h 3mn
Bit rate: 1 980 Kbps
Width: 1 280 pixels
Height: 536 pixels
Display aspect ratio: 2.35:1
Frame rate: 23.976 fps
Color space: YUV
Chroma subsampling: 4:2:0
Bit depth: 8 bits
Scan type: Progressive
Bits/(Pixel*Frame): 0.120
Stream size: 1.67 GiB (80%)
Writing library: x264 core 115 r1937 aa21558
Encoding settings: cabac=1 / ref=3 / deblock=1:-1:-1 / analyse=0x3:0x113 / me=hex / subme=7 / psy=1 / psy_rd=1.00:0.10 / mixed_ref=1 / me_range=16 / chroma_me=1 / trellis=1 / 8x8dct=1 / cqm=0 / deadzone=21,11 / fast_pskip=1 / chroma_qp_offset=-3 / threads=6 / sliced_threads=0 / nr=0 / decimate=1 / interlaced=0 / bluray_compat=0 / constrained_intra=0 / bframes=3 / b_pyramid=2 / b_adapt=1 / b_bias=0 / direct=3 / weightb=1 / open_gop=0 / weightp=2 / keyint=250 / keyint_min=23 / scenecut=40 / intra_refresh=0 / rc_lookahead=40 / rc=2pass / mbtree=1 / bitrate=1980 / ratetol=1.0 / qcomp=0.60 / qpmin=0 / qpmax=69 / qpstep=4 / cplxblur=20.0 / qblur=0.5 / ip_ratio=1.40 / aq=1:1.00

Audio
ID: 2
Format: AC-3
Format/Info: Audio Coding 3
Mode extension: CM (complete main)
Codec ID: A_AC3
Duration: 2h 3mn
Bit rate mode: Constant
Bit rate: 448 Kbps
Channel(s): 6 channels
Channel positions: Front: L C R, Side: L R, LFE
Sampling rate: 48.0 KHz
Bit depth: 16 bits
Compression mode: Lossy
Stream size: 397 MiB (18%)













Поделиться:




реклама партнёра


Вернуться к началу
 Профиль Отправить личное сообщение  
 
   Похожие торренты   Автор   Торрент   Размер 
В этой теме нет новых непрочитанных сообщений. Галлоуз Хилл / Gallows Hill / The Damned [ужасы, триллер, детектив, 2013] HDRip, dub [Чистый звук]

Dracon

64 | 1

1.43 ГБ

В этой теме нет новых непрочитанных сообщений. Дом ночных призраков / House On Haunted Hill [ужасы, триллер, 1999] HDRip, Dub

salma3

39 | 6

1.45 ГБ

В этой теме нет новых непрочитанных сообщений. В твоих глазах / In Your Eyes (Брин Хилл / Brin Hill) [2014г., драма, WEB-DLRip] Sub

Alfredovich

5 | 2

1.46 ГБ

В этой теме нет новых непрочитанных сообщений. Галлоуз Хилл / Gallows Hill / The Damned [ужасы, триллер, детектив, 2013] BDRip 720p, dub [Чистый звук]

Dracon

15 | 1

3.51 ГБ

В этой теме нет новых непрочитанных сообщений. Галлоуз Хилл / Gallows Hill / The Damned (Виктор Гарсия) [ужасы, триллер, детектив, 2013] BDRip 1080p, dub [Чистый звук]

Dracon

40 | 4

5.82 ГБ

В этой теме нет новых непрочитанных сообщений. Красный холм / Red Hill [триллер, драма, криминал, 2010] HDRip, Dvo

salma3

11 | 4

1.19 ГБ

В этой теме нет новых непрочитанных сообщений. Это всё она / She's All That [Комедия, Мелодрама, 1999] BDRip, Mvo+Sub

salma3

0 | 2

1.46 ГБ


Начать новую тему Ответить на тему  [ 1 сообщение ] 




Для Мосгорсуда, Роскомнадзора и рекламодателей:: mosgorsud-torrent[собачка]yandex.ru