Торрент файл
скачать торрент магнет ссылка Добавлен: 01 апр 2012, 16:13
Размер: 1.48 ГБ
Сидеров: 12
Личеров: 5
Автор

СообщениеДобавлено: 01 апр 2012, 16:13 

Не в сети
Супермодератор
Аватара пользователя
Дата регистрации:
11 апр 2010, 18:10
Спасибо: 5960 / 7
Сообщения: 56765
[b]Рыжий пес / Red Dog[/b]


Перевод: Профессиональный (многоголосый закадровый)
Субтитры: отсутствуют
Формат: HDRip-AVC, MKV, H.264, AC3

Страна: Австралия

Режиссер: Крив Стендерс
Жанр: драма, комедия, семейный
Продолжительность: 01:32:20
Год выпуска: 2011

В ролях: Джош Лукас, Рэйчел Тейлор, Киша Касл-Хьюз, Ноа Тейлор, Люк Форд, Билл Хантер, Роэн Никол, Джон Батчелор, Имон Фэррен, Тиффани Линдэлл-Найт.

Описание: В далеком шахтерском поселке, где живут суровые и не слишком общительные люди, однажды появляется энергичный рыжий пес из породы келпи. Только ему под силу расшевелить провинциальное сонное царство. Рыжий не подчиняется никому, но его любят все. С помощью неутомимого пса многим поселенцам суждено обрести друзей, счастье, надежду и радость. А некоторым — найти любовь всей своей жизни.



Видео: 1024x432 (2.35:1), 23.976 fps, AVC MPEG-4 High@L4.1 ~1532 kbps avg, 0.144 bit/pixel
Аудио #1: русский48 kHz, AC3 Dolby Digital, 3/2 (L,C,R,l,r) + LFE ch, ~384 kbps avg [Профессиональный (многоголосый закадровый)]
Аудио #2: английский48 kHz, AC3 Dolby Digital, 3/2 (L,C,R,l,r) + LFE ch, ~384 kbps avg [оригинал]

Рип от: S.I.D 'a


General
Unique ID: 172756505183103301276204877077222786768 (0x81F7B150FC27B06EB3F7547ADB6C06D0)
Complete name: F:\Рипы от S.I.D' а\Red Dog\Rizhij.Pes.2011.P.HDRip.mkv
Format: Matroska
Format version: Version 2
File size: 1.48 GiB
Duration: 1h 32mn
Overall bit rate: 2 300 Kbps
Movie name: Red.Dog.S.I.D
Encoded date: UTC 2012-03-18 16:41:17
Writing application: mkvmerge v5.0.1 ('Es ist Sommer') built on Oct 24 2011 19:45:06
Writing library: libebml v1.2.2 + libmatroska v1.3.0

Video
ID: 1
Format: AVC
Format/Info: Advanced Video Codec
Format profile: High@L4.1
Format settings, CABAC: Yes
Format settings, ReFrames: 8 frames
Muxing mode: Header stripping
Codec ID: V_MPEG4/ISO/AVC
Duration: 1h 32mn
Bit rate: 1 532 Kbps
Width: 1 024 pixels
Height: 432 pixels
Display aspect ratio: 2.35:1
Frame rate: 23.976 fps
Color space: YUV
Chroma subsampling: 4:2:0
Bit depth: 8 bits
Scan type: Progressive
Bits/(Pixel*Frame): 0.144
Stream size: 981 MiB (65%)
Writing library: x264 core 119 r2106 07efeb4
Encoding settings: cabac=1 / ref=8 / deblock=1:-1:-1 / analyse=0x3:0x111 / me=hex / subme=7 / psy=1 / psy_rd=1.00:0.10 / mixed_ref=1 / me_range=16 / chroma_me=1 / trellis=2 / 8x8dct=1 / cqm=0 / deadzone=21,11 / fast_pskip=1 / chroma_qp_offset=-3 / threads=6 / sliced_threads=0 / nr=0 / decimate=1 / interlaced=0 / bluray_compat=0 / constrained_intra=0 / bframes=3 / b_pyramid=2 / b_adapt=2 / b_bias=0 / direct=3 / weightb=1 / open_gop=0 / weightp=2 / keyint=250 / keyint_min=23 / scenecut=40 / intra_refresh=0 / rc_lookahead=40 / rc=2pass / mbtree=1 / bitrate=1532 / ratetol=1.0 / qcomp=0.60 / qpmin=0 / qpmax=69 / qpstep=4 / cplxblur=20.0 / qblur=0.5 / ip_ratio=1.40 / aq=1:0.10
Language: English
Default: Yes
Forced: No

Audio #1
ID: 2
Format: AC-3
Format/Info: Audio Coding 3
Mode extension: CM (complete main)
Muxing mode: Header stripping
Codec ID: A_AC3
Duration: 1h 32mn
Bit rate mode: Constant
Bit rate: 384 Kbps
Channel(s): 6 channels
Channel positions: Front: L C R, Side: L R, LFE
Sampling rate: 48.0 KHz
Bit depth: 16 bits
Compression mode: Lossy
Stream size: 254 MiB (17%)
Title: MVO
Language: Russian
Default: Yes
Forced: No

Audio #2
ID: 3
Format: AC-3
Format/Info: Audio Coding 3
Mode extension: CM (complete main)
Muxing mode: Header stripping
Codec ID: A_AC3
Duration: 1h 32mn
Bit rate mode: Constant
Bit rate: 384 Kbps
Channel(s): 6 channels
Channel positions: Front: L C R, Side: L R, LFE
Sampling rate: 48.0 KHz
Bit depth: 16 bits
Compression mode: Lossy
Stream size: 254 MiB (17%)
Title: Original
Language: English
Default: No
Forced: No








Поделиться:




реклама партнёра


Вернуться к началу
 Профиль Отправить личное сообщение  
 
   Похожие торренты   Автор   Торрент   Размер 
В этой теме нет новых непрочитанных сообщений. Рыжий пес / Red Dog [драма, комедия, семейный, 2011] HDRip-AVC, Mvo

salma3

15 | 3

738.37 МБ

В этой теме нет новых непрочитанных сообщений. Убей меня три раза / Kill Me Three Times (Крив Стендерс) [Триллер, Криминал, Комедия, 2014] BDRip 720p, mvo+avo+sub

Dracon

2 | 0

4.3 ГБ

В этой теме нет новых непрочитанных сообщений. Убей меня три раза / Kill Me Three Times (Крив Стендерс) [боевик, триллер, 2014] WEB-DLRip, mvo

Dracon

4 | 1

1.37 ГБ

В этой теме нет новых непрочитанных сообщений. Убей меня три раза / Kill Me Three Times (Крив Стендерс) [2014, боевик, триллер, WEB-DL 720p] mvo

Dracon

28 | 5

2.9 ГБ

В этой теме нет новых непрочитанных сообщений. Убей меня три раза / Kill Me Three Times (Крив Стендерс / Kriv Stenders) [2014г., Австралия, боевик, триллер, WEB-DLRip-AVC] Sub

Alfredovich

1 | 2

789.61 МБ

В этой теме нет новых непрочитанных сообщений. Рыжий клоун / Gingerclown [ужасы, комедия, 2013] HDRip, Dvo

salma3

131 | 10

1.37 ГБ

В этой теме нет новых непрочитанных сообщений. Рыжий клоун / Gingerclown [Комедия, ужасы, 2013] BDRip 720p, Dvo

salma3

20 | 6

3.85 ГБ


Начать новую тему Ответить на тему  [ 1 сообщение ] 




Для Мосгорсуда, Роскомнадзора и рекламодателей:: mosgorsud-torrent[собачка]yandex.ru