Торрент файл
скачать торрент магнет ссылка Добавлен: 01 апр 2012, 16:13
Размер: 745.38 МБ
Сидеров: 34
Личеров: 7
Автор

СообщениеДобавлено: 01 апр 2012, 16:13 

Не в сети
Супермодератор
Аватара пользователя
Дата регистрации:
11 апр 2010, 18:10
Спасибо: 5801 / 7
Сообщения: 56779
Ноттинг Хилл / Notting Hill


Перевод: Профессиональный (полное дублирование), cубтитры: отсутствуют
Формат: LowHDRip-AVC, MKV, H.264, MP3
Страна: США, Великобритания
Режиссер: Роджер Мичелл
Жанр: мелодрама, комедия
Продолжительность: 02:03:57
Год выпуска: 1999

В ролях: Джулия Робертс, Хью Грант, Ричард МакКейб, Рис Иванс, Джеймс Дрейфус, Дилан Моран, Роджер Фрост, Генри Гудман, Джулиан Райнд-Татт, Лорелей Кинг

Описание: Романтическая комедия рассказывает историю о скромном владельце книжного магазина в Ноттинг Хилл (один из районов Лондона), жизнь которого резко меняется после того, как однажды кинозвезда заходит к нему в маленький книжный магазинчик, чтобы купить путеводитель…



Видео: 720 x 304 (2.35:1), 23.976 fps, AVC (х264) High@L4.1, ~ 711 Kbps, 0.135 bit/pixel
Аудио: 48 kHz, MPEG Layer 3, 2 ch, ~128.00 kbps avg


Рип: jeenart

General
Unique ID: 239077740582222809961960977569516221391 (0xB3DCB2ADA984E841B154EE520025F3CF)
Complete name: F:\Мои релизы\Все релизы 10\notting_hill_[tfile.ru].mkv
Format: Matroska
File size: 745 MiB
Duration: 2h 3mn
Overall bit rate: 841 Kbps
Encoded date: UTC 2012-03-15 21:08:16
Writing application: mkvmerge v4.6.0 ('Still Crazy After All These Years') сборка от Apr1 2011 21:01:49
Writing library: libebml v1.2.0 + libmatroska v1.1.0

Video
ID: 1
Format: AVC
Format/Info: Advanced Video Codec
Format profile: High@L4.1
Format settings, CABAC: Yes
Format settings, ReFrames: 4 frames
Codec ID: V_MPEG4/ISO/AVC
Duration: 2h 3mn
Bit rate: 711 Kbps
Width: 720 pixels
Height: 304 pixels
Display aspect ratio: 2.35:1
Frame rate: 23.976 fps
Color space: YUV
Chroma subsampling: 4:2:0
Bit depth: 8 bits
Scan type: Progressive
Bits/(Pixel*Frame): 0.135
Stream size: 617 MiB (83%)
Writing library: x264 core 115 r1937 aa21558
Encoding settings: cabac=1 / ref=3 / deblock=1:-1:-1 / analyse=0x3:0x113 / me=hex / subme=7 / psy=1 / psy_rd=1.00:0.10 / mixed_ref=1 / me_range=16 / chroma_me=1 / trellis=1 / 8x8dct=1 / cqm=0 / deadzone=21,11 / fast_pskip=1 / chroma_qp_offset=-3 / threads=6 / sliced_threads=0 / nr=0 / decimate=1 / interlaced=0 / bluray_compat=0 / constrained_intra=0 / bframes=3 / b_pyramid=2 / b_adapt=1 / b_bias=0 / direct=3 / weightb=1 / open_gop=0 / weightp=2 / keyint=250 / keyint_min=23 / scenecut=40 / intra_refresh=0 / rc_lookahead=40 / rc=2pass / mbtree=1 / bitrate=711 / ratetol=1.0 / qcomp=0.60 / qpmin=0 / qpmax=69 / qpstep=4 / cplxblur=20.0 / qblur=0.5 / ip_ratio=1.40 / aq=1:1.00

Audio
ID: 2
Format: MPEG Audio
Format version: Version 1
Format profile: Layer 3
Mode: Joint stereo
Mode extension: MS Stereo
Codec ID: A_MPEG/L3
Codec ID/Hint: MP3
Duration: 2h 3mn
Bit rate mode: Constant
Bit rate: 128 Kbps
Channel(s): 2 channels
Sampling rate: 48.0 KHz
Compression mode: Lossy
Stream size: 113 MiB (15%)
Writing library: LAME3.98r
Encoding settings: -m j -V 4 -q 2 -lowpass 17 -b 128















Поделиться:




реклама партнёра


Вернуться к началу
 Профиль Отправить личное сообщение  
 
   Похожие торренты   Автор   Торрент   Размер 
В этой теме нет новых непрочитанных сообщений. В твоих глазах / In Your Eyes (Брин Хилл / Brin Hill) [2014г., драма, WEB-DLRip] Sub

Alfredovich

5 | 2

1.46 ГБ

В этой теме нет новых непрочитанных сообщений. Галлоуз Хилл / Gallows Hill / The Damned [ужасы, триллер, детектив, 2013] HDRip, dub [Чистый звук]

Dracon

64 | 1

1.43 ГБ

В этой теме нет новых непрочитанных сообщений. Галлоуз Хилл / Gallows Hill / The Damned [ужасы, триллер, детектив, 2013] BDRip 720p, dub [Чистый звук]

Dracon

15 | 1

3.51 ГБ

В этой теме нет новых непрочитанных сообщений. Галлоуз Хилл / Gallows Hill / The Damned (Виктор Гарсия) [ужасы, триллер, детектив, 2013] BDRip 1080p, dub [Чистый звук]

Dracon

40 | 4

5.82 ГБ

В этой теме нет новых непрочитанных сообщений. Дом ночных призраков / House On Haunted Hill [ужасы, триллер, 1999] HDRip, Dub

salma3

39 | 6

1.45 ГБ

В этой теме нет новых непрочитанных сообщений. Это всё она / She's All That [Комедия, Мелодрама, 1999] BDRip, Mvo+Sub

salma3

0 | 2

1.46 ГБ

В этой теме нет новых непрочитанных сообщений. Я, опять я и снова я / Me Myself I [мелодрама, комедия, 1999] DVDRip, Mvo

salma3

40 | 2

1.47 ГБ


Начать новую тему Ответить на тему  [ 1 сообщение ] 




Для Мосгорсуда, Роскомнадзора и рекламодателей:: mosgorsud-torrent[собачка]yandex.ru