Торрент файл
скачать торрент магнет ссылка Добавлен: 01 апр 2012, 16:10
Размер: 2.19 ГБ
Сидеров: 104
Личеров: 19
Автор

СообщениеДобавлено: 01 апр 2012, 16:10 

Не в сети
Супермодератор
Аватара пользователя
Дата регистрации:
11 апр 2010, 18:10
Спасибо: 5960 / 7
Сообщения: 56765
Семь жизней / Seven Pounds


Перевод: Профессиональный (полное дублирование), cубтитры: русские, английские
Формат: HDRip-AVC, MKV, H.264, AC3
Страна: США
Режиссер: Габриэле Муччино
Жанр: Драма
Продолжительность: 02:03:05
Год выпуска: 2008

В ролях: Уилл Смит, Розарио Доусон, Вуди Харрельсон, Майкл Или, Бэрри Пеппер, Элпидия Каррильо, Робин Ли, Джо Нуньес, Билл Смитрович, Тим Келлехер

Описание: Пытаясь исправить ошибки прошлого, агент налоговой службы Бен отправляется в необычное путешествие в искупление фатального поступка своей жизни. В ходе своей поездки он встречает семерых незнакомцев, включая смертельно больную Эмили, которая называет себя девушкой с подбитыми крыльями. Бен неожиданно влюбляется в нее, что сильно усложняет его первоначальный план. Сможет ли он разгадать послание судьбы?

[/field]

Видео: 1152 x 480 (2:40:1), 23.976 fps, AVC (х264), High@L4.1, ~1580 Kbps, 0,119 bit/pixel
Аудио 1: Русский: 48 kHz, AC3 Dolby Digital, 3/2 (L,C,R,l,r) + LFE ch, ~ 448 kbps avg[Профессиональный (полное дублирование)]
Аудио 2: Английский: 48 kHz, AC3 Dolby Digital, 3/2 (L,C,R,l,r) + LFE ch, ~ 448 kbps avg [Оригинал]
Аудио 3: Английский: AAC-LC 2 channels, 48.0 KHz ~80 Kbps [Комментарии (английские)]
Субтитры 1: UTF-8 Russian [SRT]
Субтитры 2: UTF-8 English [SRT]

Общее
Уникальный идентификатор: 189516793928870848768101355113378821643 (0x8E939B59D0214E17A8FE064A4D1D360B)
Полное имя: C:\Users\Александр\Desktop\semj.jizney.2008.bdrip.avc.ac3.mkv
Формат: Matroska
Размер файла: 2,19 Гбайт
Продолжительность: 2 ч. 3 м.
Общий поток: 2545 Кбит/сек
Дата кодирования: UTC 2009-03-26 14:30:28
Программа кодирования: mkvmerge v2.4.2 ('Oh My God') built on Jan 18 2009 17:30:28
Библиотека кодирования: libebml v0.7.7 + libmatroska v0.8.1

Видео
Идентификатор: 1
Формат: AVC
Формат/Информация: Advanced Video Codec
Профиль формата: High@L4.1
Параметр CABAC формата: Да
Параметр ReFrames формата: 10 кадры
Идентификатор кодека: V_MPEG4/ISO/AVC
Продолжительность: 2 ч. 3 м.
Ширина: 1152 пикс.
Высота: 480 пикс.
Соотношение сторон: 2,40:1
Частота кадров: 23,976 кадр/сек
Цветовое пространство: YUV
Подвыборка цветности: 4:2:0
Битовая глубина: 8 бит
Тип развёртки: Прогрессивная
Заголовок: Seven Pounds
Библиотека кодирования: x264 core 67 r1128M 682b54d
Настройки программы: cabac=1 / ref=10 / deblock=1:-3:-2 / analyse=0x3:0x113 / me=umh / subme=7 / psy_rd=0.7:0.2 / mixed_ref=1 / me_range=24 / chroma_me=1 / trellis=2 / 8x8dct=1 / cqm=0 / deadzone=21,11 / chroma_qp_offset=-3 / threads=3 / nr=0 / decimate=1 / mbaff=0 / bframes=8 / b_pyramid=1 / b_adapt=2 / b_bias=0 / direct=1 / wpredb=1 / keyint=250 / keyint_min=25 / scenecut=40 / rc=crf / crf=21.1 / qcomp=0.60 / qpmin=10 / qpmax=51 / qpstep=4 / ip_ratio=1.40 / pb_ratio=1.30 / aq=1:0.90
Язык: English
Коэффициенты матрицы: BT.709-5, BT.1361, IEC 61966-2-4 709, SMPTE RP177

Аудио #1
Идентификатор: 2
Формат: AC-3
Формат/Информация: Audio Coding 3
Расширение режима: CM (complete main)
Идентификатор кодека: A_AC3
Продолжительность: 2 ч. 3 м.
Вид битрейта: Постоянный
Битрейт: 448 Кбит/сек
Канал(ы): 6 канала(ов)
Расположение каналов: Front: L C R, Side: L R, LFE
Частота: 48,0 КГц
Битовая глубина: 16 бит
Метод сжатия: С потерями
Размер потока: 394 Мбайт (18%)
Заголовок: rus
Язык: Russian

Аудио #2
Идентификатор: 3
Формат: AC-3
Формат/Информация: Audio Coding 3
Расширение режима: CM (complete main)
Идентификатор кодека: A_AC3
Продолжительность: 2 ч. 3 м.
Вид битрейта: Постоянный
Битрейт: 448 Кбит/сек
Канал(ы): 6 канала(ов)
Расположение каналов: Front: L C R, Side: L R, LFE
Частота: 48,0 КГц
Битовая глубина: 16 бит
Метод сжатия: С потерями
Размер потока: 394 Мбайт (18%)
Заголовок: eng
Язык: English

Аудио #3
Идентификатор: 4
Формат: AAC
Формат/Информация: Advanced Audio Codec
Профиль формата: LC
Идентификатор кодека: A_AAC
Продолжительность: 2 ч. 3 м.
Канал(ы): 2 канала(ов)
Расположение каналов: Front: L R
Частота: 48,0 КГц
Метод сжатия: С потерями
Заголовок: comments
Язык: English

Текст #1
Идентификатор: 5
Формат: UTF-8
Идентификатор кодека: S_TEXT/UTF8
Идентификатор кодека/Информация: UTF-8 Plain Text
Заголовок: rus
Язык: Russian

Текст #2
Идентификатор: 6
Формат: UTF-8
Идентификатор кодека: S_TEXT/UTF8
Идентификатор кодека/Информация: UTF-8 Plain Text
Заголовок: eng
Язык: English

Меню
00:00:00.000: :00:00:00.000
00:05:00.000: :00:05:00.000
00:10:00.000: :00:10:00.000
00:15:00.000: :00:15:00.000
00:20:00.000: :00:20:00.000
00:25:00.000: :00:25:00.000
00:30:00.000: :00:30:00.000
00:35:00.000: :00:35:00.000
00:40:00.000: :00:40:00.000
00:45:00.000: :00:45:00.000
00:50:00.000: :00:50:00.000
00:55:00.000: :00:55:00.000
01:00:00.000: :01:00:00.000
01:05:00.000: :01:05:00.000
01:10:00.000: :01:10:00.000
01:15:00.000: :01:15:00.000
01:20:00.000: :01:20:00.000
01:25:00.000: :01:25:00.000
01:30:00.000: :01:30:00.000
01:35:00.000: :01:35:00.000
01:40:00.000: :01:40:00.000
01:45:00.000: :01:45:00.000
01:50:00.000: :01:50:00.000
01:55:00.000: :01:55:00.000
02:00:00.000: :02:00:00.000







Поделиться:




реклама партнёра


Вернуться к началу
 Профиль Отправить личное сообщение  
 
   Похожие торренты   Автор   Торрент   Размер 
В этой теме нет новых непрочитанных сообщений. Семь жизней / Seven Pounds [драма, мелодрама, 2008] HDRip, Dub

salma3

186 | 27

2.15 ГБ

В этой теме нет новых непрочитанных сообщений. Семь жизней / Seven Pounds [драма, мелодрама, 2008] BDRip-AVC, Dub

salma3

147 | 11

1.46 ГБ

В этой теме нет новых непрочитанных сообщений. Семь жизней / Seven Pounds [драма, мелодрама, 2008] BDRip 720p, Dub+Sub

salma3

4 | 3

4.36 ГБ

В этой теме нет новых непрочитанных сообщений. Семь жизней / Seven Pounds [драма, мелодрама, 2008] BDRip 1080p, Dub+Sub

salma3

98 | 17

7.76 ГБ

В этой теме нет новых непрочитанных сообщений. Отцы и дочери / Fаthеrs аnd Dаughtеrs (Габриэле Муччино / Gabriele Muccino) [2015г., драма, HDRір] DUB

Alfredovich

0 | 0

1.46 ГБ

В этой теме нет новых непрочитанных сообщений. Семь дней в мае / Seven Days in May [триллер, драма, мелодрама, 1964] HDRip, Dvo

salma3

55 | 14

1.45 ГБ

В этой теме нет новых непрочитанных сообщений. Семь минут / 7 Minutes (Jay Martin) [триллер, драма, криминал, 2014] HDRip, dvo

Dracon

1403 | 90

1.37 ГБ


Начать новую тему Ответить на тему  [ 1 сообщение ] 




Для Мосгорсуда, Роскомнадзора и рекламодателей:: mosgorsud-torrent[собачка]yandex.ru