Торрент файл
скачать торрент магнет ссылка Добавлен: 01 апр 2012, 16:02
Размер: 2.1 ГБ
Сидеров: 196
Личеров: 15
Автор

СообщениеДобавлено: 01 апр 2012, 16:02 

Не в сети
Супермодератор
Аватара пользователя
Дата регистрации:
11 апр 2010, 18:10
Спасибо: 5920 / 7
Сообщения: 56776
Патриот / The Patriot


Перевод: Профессиональный (полное дублирование), cубтитры: отсутствуют
Формат: HDRip-AVC, MKV, H.264, AC3
Страна: США, Германия
Режиссер: Роланд Эммерих
Жанр: боевик, драма, военный
Продолжительность: 02:44:46
Год выпуска: 2000

В ролях: Мэл Гибсон, Хит Леджер, Джоэли Ричардсон, Джейсон Айзекс, Крис Купер, Чеки Карио, Рене Обержонуа, Лиза Бреннер, Том Уилкинсон, Донал Лог

Описание: Когда над страной вспыхнуло смертоносное пламя страшной войны, прославленный ветеран и отец семерых детей Бенджамин Мартин остался в стороне. Но хладнокровное убийство его сына в одночасье меняет всю его жизнь.
Жажда мести превратила воинскую науку в жестокую бойню, а мирного плантатора — в безжалостного командира самого опасного отряда повстанцев…


[/field]

Видео: 944 x 400 (2.35.1), 23.976 fps, AVC, х264 High@L4.1, ~ 1443 Kbps, 0.159 bit/pixel
Аудио: 48 kHz, AC3 Dolby Digital, 3/2 (L,C,R,l,r) + LFE ch, ~384 kbps


Рип: jeenart

General
Unique ID: 235416013813539625458154923013700119555 (0xB11B799C2AE3BB65A1AE45BAFFA8EC03)
Complete name: F:\Мои релизы\Все релизы 10\patriot_[tfile.ru].mkv
Format: Matroska
File size: 2.10 GiB
Duration: 2h 44mn
Overall bit rate: 1 828 Kbps
Encoded date: UTC 2012-02-08 12:57:32
Writing application: mkvmerge v4.6.0 ('Still Crazy After All These Years') сборка от Apr1 2011 21:01:49
Writing library: libebml v1.2.0 + libmatroska v1.1.0

Video
ID: 1
Format: AVC
Format/Info: Advanced Video Codec
Format profile: High@L4.1
Format settings, CABAC: Yes
Format settings, ReFrames: 4 frames
Codec ID: V_MPEG4/ISO/AVC
Duration: 2h 44mn
Bit rate: 1 443 Kbps
Width: 944 pixels
Height: 400 pixels
Display aspect ratio: 2.35:1
Frame rate: 23.976 fps
Color space: YUV
Chroma subsampling: 4:2:0
Bit depth: 8 bits
Scan type: Progressive
Bits/(Pixel*Frame): 0.159
Stream size: 1.62 GiB (77%)
Writing library: x264 core 115 r1937 aa21558
Encoding settings: cabac=1 / ref=3 / deblock=1:-1:-1 / analyse=0x3:0x113 / me=hex / subme=7 / psy=1 / psy_rd=1.00:0.10 / mixed_ref=1 / me_range=16 / chroma_me=1 / trellis=1 / 8x8dct=1 / cqm=0 / deadzone=21,11 / fast_pskip=1 / chroma_qp_offset=-3 / threads=6 / sliced_threads=0 / nr=0 / decimate=1 / interlaced=0 / bluray_compat=0 / constrained_intra=0 / bframes=3 / b_pyramid=2 / b_adapt=1 / b_bias=0 / direct=3 / weightb=1 / open_gop=0 / weightp=2 / keyint=250 / keyint_min=23 / scenecut=40 / intra_refresh=0 / rc_lookahead=40 / rc=2pass / mbtree=1 / bitrate=1443 / ratetol=1.0 / qcomp=0.60 / qpmin=0 / qpmax=69 / qpstep=4 / cplxblur=20.0 / qblur=0.5 / ip_ratio=1.40 / aq=1:1.00

Audio
ID: 2
Format: AC-3
Format/Info: Audio Coding 3
Mode extension: CM (complete main)
Codec ID: A_AC3
Duration: 2h 44mn
Bit rate mode: Constant
Bit rate: 384 Kbps
Channel(s): 6 channels
Channel positions: Front: L C R, Side: L R, LFE
Sampling rate: 48.0 KHz
Bit depth: 16 bits
Compression mode: Lossy
Stream size: 453 MiB (21%)

















Поделиться:




реклама партнёра


Вернуться к началу
 Профиль Отправить личное сообщение  
 
   Похожие торренты   Автор   Торрент   Размер 
В этой теме нет новых непрочитанных сообщений. Патриот / The Patriot (Роланд Эммерих / Roland Emmerich) [2000 г., Боевик, драма, военный, BDRip 1080p]

marya111

0 | 0

14.31 ГБ

В этой теме нет новых непрочитанных сообщений. Патриот / The Patriot [боевик, драма, военный, 2000] BDRip 1080p, Dub+Mvo+Sub [60 fps]

salma3

39 | 6

18.71 ГБ

В этой теме нет новых непрочитанных сообщений. Патриот / The Patriot [боевик, драма, военный, история, 2000] BDRip, Dub [Театральная версия]

salma3

37 | 21

2.91 ГБ

В этой теме нет новых непрочитанных сообщений. Патриот / Patriot [S01] [Триллер, комедия, 2015] WEBRip, Mvo [IdeaFilm]

salma3

179 | 68

7.16 ГБ

В этой теме нет новых непрочитанных сообщений. Патриот / Patriot [S01] [Триллер, комедия, 2015] WEBRip 720p, Mvo [IdeaFilm]

salma3

60 | 62

28.71 ГБ

В этой теме нет новых непрочитанных сообщений. Игры патриотов / Patriot Games [боевик, триллер, драма, криминал, 1992] BDRip 720p, 2Mvo+Avo+Dvo

salma3

23 | 6

11.71 ГБ

В этой теме нет новых непрочитанных сообщений. Правила боя / Rules of Engagement [боевик, драма, военный, 2000] BDRip 1080p, Dub+Sub

salma3

7 | 5

11.29 ГБ


Начать новую тему Ответить на тему  [ 1 сообщение ] 




Для Мосгорсуда, Роскомнадзора и рекламодателей:: mosgorsud-torrent[собачка]yandex.ru