Торрент файл
скачать торрент магнет ссылка Добавлен: 01 апр 2012, 16:02
Размер: 751.3 МБ
Сидеров: 22
Личеров: 5
Автор

СообщениеДобавлено: 01 апр 2012, 16:02 

Не в сети
Супермодератор
Аватара пользователя
Дата регистрации:
11 апр 2010, 18:10
Спасибо: 5801 / 7
Сообщения: 56779
[b]Армейская история / A Soldier's Story[/b]


Перевод: Профессиональный (многоголосый закадровый)
Субтитры: отсутствуют
Формат: LowHDRip-AVC, MKV, H.264, AC3

Страна: США

Режиссер: Норман Джуисон
Жанр: драма, детектив, военный
Продолжительность: 01:40:54
Год выпуска: 1984

В ролях: Ховард Э. Роллинз мл., Адольф Цезар, Арт Эванс, Дэвид Алан Грир, Дэвид Харрис, Деннис Липском, Ларри Райли, Роберт Таунсенд, Дензел Вашингтон, Уильям Аллен Янг.

Описание: Вторая мировая война. На американской военной базе ЧП: застрелен сержант- афроамериканец Уотерс. Расследование убийства поручено капитану Дэвенпорту, чернокожему армейскому юристу. Белые офицеры и черные солдаты поражены таким назначением. Приступив к допросам, Дэвенпорт быстро понимает, что на помощь в поисках истины ему не стоит рассчитывать…



Видео: 816x352 (2.35:1), 23.976 fps, AVC MPEG-4 High@L4.1 ~832 kbps avg, 0.121 bit/pixel
Аудио: 48 kHz, AC3 Dolby Digital, 2/0 (L, R) ch, ~192 kbps avg

Рип от: S.I.D 'a[/url]


General
Unique ID: 215237519372317370814128016055425618735 (0xA1ED3D05E9C3A4BE80693481D568D32F)
Complete name: F:\Рипы от папы Карло\A.Soldiers.Story.1984.P.HDRip.700.S.I.D.mkv
Format: Matroska
Format version: Version 2
File size: 751 MiB
Duration: 1h 40mn
Overall bit rate: 1 041 Kbps
Movie name: A.Soldier's.Story.S.I.D
Encoded date: UTC 2012-02-11 12:45:40
Writing application: mkvmerge v5.0.1 ('Es ist Sommer') built on Oct 24 2011 19:45:06
Writing library: libebml v1.2.2 + libmatroska v1.3.0

Video
ID: 1
Format: AVC
Format/Info: Advanced Video Codec
Format profile: High@L4.1
Format settings, CABAC: Yes
Format settings, ReFrames: 8 frames
Muxing mode: Header stripping
Codec ID: V_MPEG4/ISO/AVC
Duration: 1h 40mn
Bit rate: 832 Kbps
Width: 816 pixels
Height: 352 pixels
Display aspect ratio: 2.35:1
Frame rate: 23.976 fps
Color space: YUV
Chroma subsampling: 4:2:0
Bit depth: 8 bits
Scan type: Progressive
Bits/(Pixel*Frame): 0.121
Stream size: 598 MiB (80%)
Writing library: x264 core 119 r2106 07efeb4
Encoding settings: cabac=1 / ref=8 / deblock=1:-1:-1 / analyse=0x3:0x111 / me=umh / subme=0 / psy=1 / psy_rd=1.00:0.10 / mixed_ref=1 / me_range=16 / chroma_me=1 / trellis=2 / 8x8dct=1 / cqm=0 / deadzone=21,11 / fast_pskip=1 / chroma_qp_offset=-4 / threads=6 / sliced_threads=0 / nr=0 / decimate=1 / interlaced=0 / bluray_compat=0 / constrained_intra=0 / bframes=3 / b_pyramid=2 / b_adapt=2 / b_bias=0 / direct=1 / weightb=1 / open_gop=0 / weightp=2 / keyint=250 / keyint_min=23 / scenecut=40 / intra_refresh=0 / rc=abr / mbtree=0 / bitrate=832 / ratetol=1.0 / qcomp=0.60 / qpmin=0 / qpmax=69 / qpstep=4 / ip_ratio=1.40 / pb_ratio=1.30 / aq=1:0.10
Language: English
Default: Yes
Forced: No

Audio
ID: 2
Format: AC-3
Format/Info: Audio Coding 3
Mode extension: CM (complete main)
Muxing mode: Header stripping
Codec ID: A_AC3
Duration: 1h 40mn
Bit rate mode: Constant
Bit rate: 192 Kbps
Channel(s): 2 channels
Channel positions: Front: L R
Sampling rate: 48.0 KHz
Bit depth: 16 bits
Compression mode: Lossy
Stream size: 139 MiB (18%)
Title: MVO
Language: Russian
Default: Yes
Forced: No








Поделиться:




реклама партнёра


Вернуться к началу
 Профиль Отправить личное сообщение  
 
   Похожие торренты   Автор   Торрент   Размер 
В этой теме нет новых непрочитанных сообщений. Армейская история / A Soldier's Story [драма, криминал, детектив, военный, 1984] BDRip 1080p, Mvo+Sub

salma3

6 | 3

11.97 ГБ

В этой теме нет новых непрочитанных сообщений. Армейская история / A Soldier's Story [драма, криминал, детектив, военный, 1984] BDRip 720p, Mvo+Sub

salma3

30 | 3

5.13 ГБ

В этой теме нет новых непрочитанных сообщений. Правдивая история / True Story (Руперт Гулд) [2015, триллер, драма, детектив, HDRip | iTunes] mvo

Dracon

94 | 39

2.05 ГБ

В этой теме нет новых непрочитанных сообщений. Правдивая история / True Story (Руперт Гулд) [триллер, драма, детектив, 2015] HDRip, Mvo [iTunes]

Dracon

1236 | 42

1.45 ГБ

В этой теме нет новых непрочитанных сообщений. Правдивая история / True Story (Руперт Гулд) [триллер, драма, детектив, 2015] BDRip 720p, Mvo+Sub [iTunes]

Dracon

790 | 65

7.09 ГБ

В этой теме нет новых непрочитанных сообщений. Правдивая история / True Story (Руперт Гулд) [триллер, драма, детектив, 2015] BDRip 1080p, Mvo [iTunes]

Dracon

22 | 2

9.66 ГБ

В этой теме нет новых непрочитанных сообщений. Правдивая история / True Story (Руперт Гулд) [триллер, драма, детектив, 2015] BDRip 720p, Mvo [iTunes]

Dracon

26 | 3

5.15 ГБ


Начать новую тему Ответить на тему  [ 1 сообщение ] 




Для Мосгорсуда, Роскомнадзора и рекламодателей:: mosgorsud-torrent[собачка]yandex.ru