Торрент файл
скачать торрент магнет ссылка Добавлен: 01 апр 2012, 16:02
Размер: 745.24 МБ
Сидеров: 105
Личеров: 10
Автор

СообщениеДобавлено: 01 апр 2012, 16:02 

Не в сети
Супермодератор
Аватара пользователя
Дата регистрации:
11 апр 2010, 18:10
Спасибо: 5799 / 7
Сообщения: 56779
Говорящие с ветром / Windtalkers


Перевод: Профессиональный (полное дублирование), cубтитры: отсутствуют
Формат: LowHDRip-AVC, MKV, H.264, MP3
Страна: США
Режиссер: Джон Ву
Жанр: боевик, военный, история
Продолжительность: 02:14:20
Год выпуска: 2002

В ролях: Николас Кэйдж, Адам Бич, Питер Стормар, Ной Эммерих, Марк Руффало, Брайан Ван Холт, Мартин Хендерсон, Роджер Уилли, Фрэнсис О`Коннор, Кристиан Слэйтер, Джейсон Айзекс, Билли Мортс

Описание: Вторая мировая война. Америка ведет ожесточенные бои с японцами в Тихом океане. В течении этой войны японцы искусно расшифровывают секретные американские радиограммы. Это обстоятельство заставило американское правительство завербовать несколько сотен индейцев Навахо, чтобы использовать их родной язык в качестве кода для секретных сообщений.
Морскому пехотинцу Джо Эндерсу дается задание: охранять Бена Яхзи, который знает секретный код, охранять любой ценой, и даже убить своего подопечного, если он попадет в плен к врагам. Джо предстоит решить, чьей жизнью пожертвовать — своей или Бена — чтобы защитить код…




Видео: 720 x 304 (2.35:1), 23.976 fps, AVC (х264), High@L4.1, ~ 646 Kbps, 0.123 bit/pixel
Аудио: 48 kHz, MPEG Layer 3, 2 ch, ~128.00 kbps avg


Рип: jeenart

    Чтобы придать фильму больше аутентичности киностудия MGM приобрела несколько раритетных раций периода Второй мировой войны у одного из частных коллекционеров в штате Огайо.
    Координатор по работе с оружием и прочей боевой амуницией Роберт Галотти собрал более 500 раритетных единиц огнестрельного оружия врёмён Второй мировой войны, добавив к ним 700 резиновых точных копий, использовавшихся ранее при съёмках фильмов. Также были задействованы настоящие американские танки Sherman и Stuart и японские Hago.
    Релиз фильма был запланирован на осень 2001 года, но трагические события 11 сентября вынудили киностудию перенести премьеру на лето 2002 года. Все постеры и прочая рекламная атрибутика ранее разосланные по кинотеатрам были отозваны, позднее став ценным раритетом в среде коллекционеров.
    Съёмки сцен в тренировочном лагере морской пехоты Тарава, расположенном на Гавайских островах, прошли на территории авиабазы в Пойнт-Мугу, штат Калифорния.
    Непосредственно перед съёмками большинство задействованных в фильме актёров вместе с 62 участниками массовки прошли интенсивную недельную подготовку в специально созданном для них тренировочном лагере. Продюсеры заручились поддержкой министерства обороны, разрешившего воспользоваться для тренировок своей базой морской пехоты, расположенной на острове Оаху на Гавайских островах. Там под руководством отставного старшего сержанта Джеймса Девера и предоставленных в его подчинение инструкторов из числа находящихся на службе морских пехотинцев актёры помимо физической подготовки учились и мельчайшим деталям из образа жизни морской пехоты.
    На роль рядового Невилла первоначально был приглашён Стив Дж. Термат, но позднее его планы изменились, и он принял решение на некоторое время отойти от актёрской карьеры, посвятив некоторое время реальной службе в армии. В результате на смену ему был приглашён Мартин Хендерсон.
  • Роль артиллерийского сержанта Хьелмстада помимо Питера Стормаре могла достаться также Микаэлу Персбрандту.
General
Unique ID: 204115059298654459360584508335965136056 (0x998F216729469028ABCE5ED7C0F4E4B
Complete name: F:\Мои релизы\Все релизы 10\govorjaschie_s_vetrom_[tfile.ru].mkv
Format: Matroska
File size: 745 MiB
Duration: 2h 14mn
Overall bit rate: 776 Kbps
Encoded date: UTC 2012-03-26 22:40:26
Writing application: mkvmerge v4.6.0 ('Still Crazy After All These Years') сборка от Apr1 2011 21:01:49
Writing library: libebml v1.2.0 + libmatroska v1.1.0

Video
ID: 1
Format: AVC
Format/Info: Advanced Video Codec
Format profile: High@L4.1
Format settings, CABAC: Yes
Format settings, ReFrames: 4 frames
Codec ID: V_MPEG4/ISO/AVC
Duration: 2h 14mn
Bit rate: 646 Kbps
Width: 720 pixels
Height: 304 pixels
Display aspect ratio: 2.35:1
Frame rate: 23.976 fps
Color space: YUV
Chroma subsampling: 4:2:0
Bit depth: 8 bits
Scan type: Progressive
Bits/(Pixel*Frame): 0.123
Stream size: 607 MiB (82%)
Writing library: x264 core 115 r1937 aa21558
Encoding settings: cabac=1 / ref=3 / deblock=1:-1:-1 / analyse=0x3:0x113 / me=hex / subme=7 / psy=1 / psy_rd=1.00:0.10 / mixed_ref=1 / me_range=16 / chroma_me=1 / trellis=1 / 8x8dct=1 / cqm=0 / deadzone=21,11 / fast_pskip=1 / chroma_qp_offset=-3 / threads=6 / sliced_threads=0 / nr=0 / decimate=1 / interlaced=0 / bluray_compat=0 / constrained_intra=0 / bframes=3 / b_pyramid=2 / b_adapt=1 / b_bias=0 / direct=3 / weightb=1 / open_gop=0 / weightp=2 / keyint=250 / keyint_min=23 / scenecut=40 / intra_refresh=0 / rc_lookahead=40 / rc=2pass / mbtree=1 / bitrate=646 / ratetol=1.0 / qcomp=0.60 / qpmin=0 / qpmax=69 / qpstep=4 / cplxblur=20.0 / qblur=0.5 / ip_ratio=1.40 / aq=1:1.00

Audio
ID: 2
Format: MPEG Audio
Format version: Version 1
Format profile: Layer 3
Mode: Joint stereo
Mode extension: MS Stereo
Codec ID: A_MPEG/L3
Codec ID/Hint: MP3
Duration: 2h 14mn
Bit rate mode: Constant
Bit rate: 128 Kbps
Channel(s): 2 channels
Sampling rate: 48.0 KHz
Compression mode: Lossy
Stream size: 123 MiB (17%)
Writing library: LAME3.98r
Encoding settings: -m j -V 4 -q 2 -lowpass 17 -b 128
















Поделиться:




реклама партнёра


Вернуться к началу
 Профиль Отправить личное сообщение  
 
   Похожие торренты   Автор   Торрент   Размер 
В этой теме нет новых непрочитанных сообщений. Говорящие с ветром / Windtalkers [Военный, история, 2002] DVD-9, Dub+Mvo+Avo

salma3

3 | 3

5.92 ГБ

В этой теме нет новых непрочитанных сообщений. К-19 / K-19: The Widowmaker [триллер, драма, военный, история, 2002], Blu-ray 1080p, Dub+Avo+Sub

salma3

3 | 3

45.6 ГБ

В этой теме нет новых непрочитанных сообщений. Пропуск / Laissez-passer [драма, военный, биография, история, 2002] DVDRip, Dvo

salma3

24 | 1

2.05 ГБ

В этой теме нет новых непрочитанных сообщений. Юлий Цезарь / Julius Caesar [драма, военный, биография, история, 2002] BDRip 720p, Mvo+Sub

salma3

161 | 25

4.36 ГБ

В этой теме нет новых непрочитанных сообщений. Простая история (Виктор Татарский) [2016, Боевик, военный, драма, WEB-DLRip]

marya111

47 | 5

749.93 МБ

В этой теме нет новых непрочитанных сообщений. Мидуэй / Midway [боевик, драма, военный, история, 1976] BDRip 720p, Mvo+Avo+Sub

salma3

145 | 35

10.43 ГБ

В этой теме нет новых непрочитанных сообщений. Подводная лодка / Das Boot [боевик, драма, военный, история, 1981] BDRip 1080p, Mvo+Sub

salma3

30 | 6

38.12 ГБ


Начать новую тему Ответить на тему  [ 1 сообщение ] 




Для Мосгорсуда, Роскомнадзора и рекламодателей:: mosgorsud-torrent[собачка]yandex.ru