Торрент файл
скачать торрент магнет ссылка Добавлен: 01 апр 2012, 15:56
Размер: 2.19 ГБ
Сидеров: 54
Личеров: 7
Автор

СообщениеДобавлено: 01 апр 2012, 15:56 

Не в сети
Супермодератор
Аватара пользователя
Дата регистрации:
11 апр 2010, 18:10
Спасибо: 5802 / 7
Сообщения: 56779
Ограбление по-итальянски / The Italian Job

Перевод: Профессиональный (полное дублирование), cубтитры: отсутствуют
Формат: HDRip-AVC, MKV, H.264, AC3
Страна: США, Франция, Великобритания
Режиссер: Ф. Гари Грей
Жанр: Боевик, триллер, криминал
Продолжительность: 01:50:32
Год выпуска: 2003
В ролях: Марк Уолберг, Шарлиз Терон, Эдвард Нортон, Сет Грин, Джейсон Стэтхэм, Мос Дэф , Дональд Сазерлэнд
Описание: Банда грабителей под руководством Чарли Крокера во всю прыть несется на Мини Куперах по улицам Лос-Анджелеса и даже заныривает в подземку. Банда стремится увезти в безопасное место добычу — сейф, набитый золотом.
В Лос-Анджелесе с его чудовищными пробками просто так не поездишь, поэтому банда предварительно позаботилась о «зеленой улице» для себя: на всех светофорах по пути их следования горит только зеленый свет. Для остальных, соответственно, горит красный, что провоцирует грандиознейшую в истории Лос-Анджелеса дорожную пробку.



Видео: 1024х432 (2,40:1), 23,976 fps, AVC (х264) High@L4.1 ~ 2445 кbps avg, 0.231 bit/pixel
Аудио: 48 kHz, AC3 Dolby Digital 5.1 @, 3/2 (L,C,R,l,r) + LFE ch, ~384 kbps
Релиз группы
Релиз от

Видео:
Идентификатор: 1
Формат: AVC
Формат/Информация: Advanced Video Codec
Профиль формата: High@L4.1
Параметр CABAC формат: Да
Параметр ReFrames формата: 8 кадров
Параметры GOP формата: M=1, N=39
Идентификатор кодека: V_MPEG4/ISO/AVC
Продолжительность: 1 ч. 50 м.
Битрейт: 2445 Кбит/сек
Ширина: 1024 пикс.
Высота: 432 пикс.
Соотношение сторон: 2,40:1
Режим частоты кадров: Переменный
Частота кадров: 23,976 кадр/сек
Цветовое пространство: YUV
Подвыборка цветности: 4:2:0
Битовая глубина: 8 бит
Тип развёртки: Прогрессивная
Бит/(Пиксели*Кадры): 0.231
Размер потока: 1,85 Гбайт (84%)
Библиотека кодирования: x264 core 116 r2019M 9cc407d
Настройки программы: cabac=1 / ref=9 / deblock=1:-2:-2 / analyse=0x3:0x133 / me=umh / subme=9 / psy=1 / psy_rd=1.00:0.20 / mixed_ref=1 / me_range=32 / chroma_me=1 / trellis=1 / 8x8dct=1 / cqm=0 / deadzone=21,11 / fast_pskip=1 / chroma_qp_offset=-3 / threads=6 / sliced_threads=0 / nr=0 / decimate=1 / interlaced=0 / bluray_compat=0 / constrained_intra=0 / bframes=9 / b_pyramid=1 / b_adapt=2 / b_bias=0 / direct=3 / weightb=1 / open_gop=0 / weightp=2 / keyint=230 / keyint_min=23 / scenecut=40 / intra_refresh=0 / rc_lookahead=60 / rc=2pass / mbtree=1 / bitrate=2445 / ratetol=1.0 / qcomp=0.60 / qpmin=0 / qpmax=69 / qpstep=4 / cplxblur=20.0 / qblur=0.5 / ip_ratio=1.40 / aq=1:1.00
Язык: English

Аудио:
Идентификатор: 2
Формат: AC-3
Формат/Информация: Audio Coding 3
Расширение режима: CM (complete main)
Идентификатор кодека: A_AC3
Продолжительность: 1 ч. 50 м.
Вид битрейта: Постоянный
Битрейт: 384 Кбит/сек
Каналы: 6 каналов
Расположение каналов: Front: L C R, Side: L R, LFE
Частота: 48,0 КГц
Битовая глубина: 16 бит
Метод сжатия: С потерями
Размер потока: 304 Мбайт (14%)

[b]





[b]Поделиться:




реклама партнёра


Вернуться к началу
 Профиль Отправить личное сообщение  
 
   Похожие торренты   Автор   Торрент   Размер 
В этой теме нет новых непрочитанных сообщений. Ограбление по-итальянски / The Italian Job [боевик, триллер, криминал, 2003] BDRemux 1080p, Dub

salma3

21 | 17

53.04 ГБ

В этой теме нет новых непрочитанных сообщений. Итальянская работа / The Italian Job [Боевик, триллер, комедия, криминал, 1969] BDRip 720p Mvo+Sub

salma3

47 | 0

5.28 ГБ

В этой теме нет новых непрочитанных сообщений. Вооружённое ограбление / Mains armees [драма, триллер, криминал, 2012] HDRip, Mvo [НТВ+]

salma3

32 | 2

1.46 ГБ

В этой теме нет новых непрочитанных сообщений. Ограбление по-американски / American Heist (Сарик Андреасян) [триллер, криминал, драма, 2014] HDRip, dub [Чистый звук]

Dracon

365 | 16

1.37 ГБ

В этой теме нет новых непрочитанных сообщений. Во имя мести / Out For a Kill [Боевик, триллер, криминал, 2003] HDRip, Mvo

salma3

13 | 4

1.46 ГБ

В этой теме нет новых непрочитанных сообщений. Голливудские копы / Hollywood Homicide [боевик, триллер, комедия, криминал, 2003] HDRip, Dub [КПК]

salma3

5 | 4

1003.72 МБ

В этой теме нет новых непрочитанных сообщений. Юхан Фальк 9 Ограбление века / Johan Falk: Alla råns moder (Андерс Нильсон / Anders Nilsson) [2012г., боевик, триллер, криминал, DVDRip] VO

Alfredovich

16 | 7

1.36 ГБ


Начать новую тему Ответить на тему  [ 1 сообщение ] 




Для Мосгорсуда, Роскомнадзора и рекламодателей:: mosgorsud-torrent[собачка]yandex.ru